<?xml version="1.0" standalone="no"?>
<!DOCTYPE svg PUBLIC "-//W3C//DTD SVG 1.1//EN" "http://www.w3.org/Graphics/SVG/1.1/DTD/svg11.dtd" >
<svg>
<metadata>
Created by FontForge 20110222 at Mon Feb 24 00:42:22 2014
 By Orthosie Webhosting
Copyright 1989, 1999, 2000 Adobe Systems Incorporated. All rights reserved. Trajan is either a registered trademark or a trademark of Adobe Systems Incorporated in the United States and/or other countries.
</metadata>
<defs>
<font id="TrajanPro-Regular" horiz-adv-x="535" >
  <font-face 
    font-family="Trajan Pro"
    font-weight="400"
    font-stretch="normal"
    units-per-em="1000"
    panose-1="2 2 5 2 5 5 6 2 3 1"
    ascent="750"
    descent="-250"
    x-height="640"
    cap-height="753"
    bbox="-249.885 -256 1517 998"
    underline-thickness="50"
    underline-position="-50"
    stemh="36"
    stemv="80"
    unicode-range="U+0020-FB02"
  />
<missing-glyph horiz-adv-x="500" 
d="M0 0v700h500v-700h-500zM250 395l170 255h-340zM280 350l170 -255v510zM80 50h340l-170 255zM50 605v-510l170 255z" />
    <glyph glyph-name=".notdef" horiz-adv-x="500" 
d="M0 0v700h500v-700h-500zM250 395l170 255h-340zM280 350l170 -255v510zM80 50h340l-170 255zM50 605v-510l170 255z" />
    <glyph glyph-name="space" unicode=" " horiz-adv-x="325" 
 />
    <glyph glyph-name="exclam" unicode="!" horiz-adv-x="320" 
d="M143 206l-16 266c-1 15 -7 158 -15 189c-2 8 -4 14 -4 19s2 9 5 14c14 24 46 54 74 68c8 4 11 5 15 5s6 -2 6 -10c0 -7 -10 -58 -15 -132c-1 -18 -21 -415 -23 -439c-1 -14 -2 -32 -12 -32s-13 13 -15 52zM160 -17c-35 0 -50 28 -50 51c0 21 15 51 51 51
c29 0 51 -19 51 -48c0 -30 -21 -54 -52 -54z" />
    <glyph glyph-name="quotedbl" unicode="&#x22;" horiz-adv-x="325" 
d="M100 755c25 0 42 0 42 -14c0 -16 -22 -66 -31 -176c-3 -40 -6 -45 -11 -45s-8 5 -11 45c-9 110 -31 160 -31 176c0 14 17 14 42 14zM225 755c25 0 42 0 42 -14c0 -16 -22 -66 -31 -176c-3 -40 -6 -45 -11 -45s-8 5 -11 45c-9 110 -31 160 -31 176c0 14 17 14 42 14z" />
    <glyph glyph-name="numbersign" unicode="#" horiz-adv-x="571" 
d="M539 460h-120l-24 -164h114v-56h-123l-36 -240h-35l37 240h-163l-38 -240h-35l38 240h-122v56h131l25 164h-124v56h132l33 238h36l-33 -238h160l32 238h35l-32 -238h112v-56zM384 460h-160l-25 -164h161z" />
    <glyph glyph-name="dollar" unicode="$" horiz-adv-x="571" 
d="M280 0l-7 -81c-1 -5 -5 -7 -10 -8l-19 -6c-6 -1 -8 2 -7 10l8 85c-26 0 -92 7 -131 24c-25 11 -28 15 -28 36c0 54 8 106 11 118c2 12 6 19 11 19s6 -5 5 -22c-1 -35 1 -64 26 -93c26 -31 69 -44 109 -44l29 320c-111 78 -169 131 -169 221c0 123 121 180 207 180l7 80
c0 5 2 8 6 9l23 7c5 1 8 0 8 -5l-9 -91c49 0 94 -7 112 -14c6 -3 8 -6 8 -15c0 -20 -2 -100 -4 -117c-1 -8 -4 -10 -8 -10c-5 0 -8 3 -8 15c0 25 -3 55 -29 79c-17 16 -51 29 -75 29l-29 -298c95 -62 175 -117 175 -229c0 -149 -142 -199 -212 -199zM285 453l26 273
c-35 0 -136 -20 -136 -121c0 -60 38 -102 110 -152zM310 335l-26 -297c85 4 136 58 136 139c0 67 -42 114 -110 158z" />
    <glyph glyph-name="percent" unicode="%" horiz-adv-x="870" 
d="M647 0c-116 0 -166 98 -166 176c0 92 51 191 173 191c114 0 166 -97 166 -176c0 -91 -53 -191 -173 -191zM651 28c77 0 107 69 107 149c0 78 -38 162 -109 162c-76 0 -106 -68 -106 -149c0 -78 35 -162 108 -162zM300 -4l-46 -8c-11 -2 -14 5 -11 11
c100 224 307 714 316 735c-63 -3 -219 -17 -236 -16v-2c36 -25 65 -79 65 -143c0 -91 -54 -191 -172 -191c-116 0 -166 98 -166 176c0 93 57 192 178 192c170 0 354 23 380 23c4 0 7 -1 7 -4c0 -5 -5 -14 -11 -29l-294 -732c-4 -9 -5 -11 -10 -12zM220 410
c77 0 106 69 106 149c0 78 -37 163 -108 163c-76 0 -106 -69 -106 -150c0 -78 35 -162 108 -162z" />
    <glyph glyph-name="ampersand" unicode="&#x26;" horiz-adv-x="775" 
d="M293 -17c-175 0 -243 134 -243 221c0 117 75 195 153 241c-37 52 -49 93 -49 138c0 79 81 184 215 184c51 0 94 -10 121 -25c12 -7 13 -13 13 -25c0 -30 -4 -100 -7 -115s-6 -17 -10 -17c-5 0 -6 4 -6 19c0 26 -6 59 -31 85c-22 23 -56 44 -100 44
c-60 0 -127 -37 -127 -131c0 -78 54 -143 158 -256c34 -37 157 -152 189 -179c28 38 51 105 51 166c0 15 -4 34 -19 49c-13 13 -34 16 -49 16c-6 0 -12 2 -12 7s8 7 16 7c24 0 64 -1 120 -7c15 -2 18 -10 18 -20c0 -81 -55 -182 -99 -236c66 -56 110 -83 138 -99
c32 -19 83 -39 119 -39c9 0 14 -1 14 -7c0 -4 -8 -7 -17 -7h-98c-74 0 -98 7 -208 94c-23 -23 -102 -108 -250 -108zM328 36c93 0 155 39 189 74c-56 46 -155 141 -181 169s-90 99 -118 140c-52 -34 -90 -88 -90 -168c0 -125 88 -215 200 -215z" />
    <glyph glyph-name="quoteright" unicode="&#x2019;" horiz-adv-x="200" 
d="M85 732c0 31 -13 57 -20 65c-8 9 -9 12 -9 17c0 3 5 6 9 6c16 0 54 -12 70 -18c12 -6 17 -11 17 -26c0 -71 -51 -155 -86 -197c-4 -6 -8 -8 -13 -8c-2 0 -5 2 -5 5s1 6 4 13c15 32 33 86 33 143z" />
    <glyph glyph-name="parenleft" unicode="(" horiz-adv-x="360" 
d="M137 319c0 -206 59 -325 142 -424c4 -5 7 -8 7 -12s-3 -7 -7 -7c-2 0 -5 2 -9 5c-78 58 -208 213 -208 425c0 213 145 388 207 432c4 3 8 6 11 6c4 0 7 -4 7 -8c0 -3 -3 -7 -7 -11c-48 -48 -143 -203 -143 -406z" />
    <glyph glyph-name="parenright" unicode=")" horiz-adv-x="360" 
d="M223 301c0 206 -59 325 -142 424c-4 5 -7 8 -7 12s3 7 7 7c2 0 5 -2 9 -5c78 -58 208 -213 208 -423c0 -215 -145 -390 -207 -434c-4 -3 -8 -6 -11 -6c-4 0 -7 4 -7 8c0 3 3 7 7 11c48 48 143 203 143 406z" />
    <glyph glyph-name="asterisk" unicode="*" horiz-adv-x="350" 
d="M207 797c0 -25 -15 -89 -27 -127c-1 -2 -1 -5 0 -7c1 -1 2 -1 5 0c45 12 86 46 94 55c5 4 7 7 10 7c7 0 28 -43 28 -63c0 -5 -3 -7 -12 -9c-4 -1 -85 -3 -115 -4c-3 0 -4 -1 -6 -2c-1 -1 -1 -4 1 -7c12 -20 72 -66 84 -70c9 -3 11 -5 11 -9c0 -16 -36 -50 -51 -50
c-4 0 -9 5 -14 14c-11 20 -35 78 -43 103c-1 2 -2 6 -4 6c-1 0 -3 0 -4 -3c-5 -8 -33 -69 -38 -83c-2 -7 -6 -15 -6 -23c0 -3 -4 -5 -12 -5c-31 0 -63 6 -63 13c0 4 1 8 7 16c11 15 87 80 100 91c2 2 3 4 3 6s-2 3 -4 3c-23 6 -82 7 -95 7c-6 0 -10 -3 -12 -3
c-8 0 -11 51 -11 67c0 5 4 8 10 8c30 0 102 -55 113 -64c3 -2 5 -2 8 -1c1 2 1 4 1 7c1 13 -21 87 -26 98c-2 4 -4 9 -4 11c0 10 46 29 64 29c5 0 8 -3 8 -11z" />
    <glyph glyph-name="plus" unicode="+" horiz-adv-x="510" 
d="M468 243h-186v-187h-52v187h-188v51h187v187h52v-187h187v-51z" />
    <glyph glyph-name="comma" unicode="," horiz-adv-x="250" 
d="M111 -2c0 46 -34 59 -34 71c0 28 36 54 62 54c5 0 8 -3 18 -19c13 -20 17 -34 17 -43c0 -8 -5 -26 -10 -39c-10 -23 -36 -76 -64 -107c-4 -5 -9 -9 -13 -9c-3 0 -7 3 -7 7s5 10 7 14c17 29 24 52 24 71z" />
    <glyph glyph-name="hyphen" unicode="-" horiz-adv-x="390" 
d="M73 310h252c17 0 30 -2 30 -10c0 -12 -19 -14 -35 -17c-27 -4 -204 -28 -238 -37c-19 -5 -36 -15 -41 -15c-6 0 -7 6 -5 15l15 56c2 7 6 8 22 8z" />
    <glyph glyph-name="period" unicode="." horiz-adv-x="250" 
d="M124 0c-38 0 -54 30 -54 55c0 23 16 55 55 55c31 0 55 -20 55 -52s-22 -58 -56 -58z" />
    <glyph glyph-name="slash" unicode="/" horiz-adv-x="552" 
d="M55 -15l-32 21c-4 2 -4 7 1 15l461 739c4 6 7 8 14 4l30 -18c4 -3 4 -7 2 -10l-464 -746c-4 -7 -8 -7 -12 -5z" />
    <glyph glyph-name="zero" unicode="0" horiz-adv-x="571" 
d="M42 352c0 236 91 415 251 415c183 0 236 -238 236 -369c0 -230 -89 -415 -252 -415c-156 0 -235 190 -235 369zM123 393c0 -175 51 -373 174 -373c90 0 151 138 151 335c0 190 -62 375 -175 375c-93 0 -150 -134 -150 -337z" />
    <glyph glyph-name="one" unicode="1" horiz-adv-x="571" 
d="M341 486l-1 -185c-1 -100 0 -186 5 -230c4 -31 8 -46 40 -53c15 -3 57 -6 66 -6c4 0 9 -4 9 -8c0 -5 -5 -7 -17 -7c-75 0 -139 3 -144 3s-89 -3 -153 -3c-11 0 -17 2 -17 7c0 4 4 8 8 8c12 0 61 3 80 7c33 6 40 21 42 52c3 44 3 130 3 230v175v152c0 20 -2 31 -18 31
c-19 0 -89 -36 -114 -48c-5 -3 -8 -4 -12 -4c-3 0 -7 5 -7 9c0 3 3 7 7 10l193 129c9 6 17 12 24 12c8 0 11 -11 11 -21c0 -8 -4 -107 -5 -260z" />
    <glyph glyph-name="two" unicode="2" horiz-adv-x="571" 
d="M428 0h-379c-7 0 -14 6 -14 14s10 17 18 24c200 178 349 316 349 508c0 143 -92 185 -159 185c-48 0 -78 -11 -107 -38c-24 -23 -35 -58 -35 -97c0 -9 -4 -15 -9 -15c-4 0 -7 4 -8 13s-6 92 -6 123c0 6 1 9 10 15c37 17 95 35 176 35c151 0 226 -96 226 -202
c0 -207 -224 -392 -348 -498c-5 -4 -3 -7 2 -7h73c17 0 135 1 171 5c73 7 105 43 117 96c3 11 6 15 12 15c5 0 6 -9 6 -15c0 -19 -20 -97 -30 -131c-8 -27 -23 -30 -65 -30z" />
    <glyph glyph-name="three" unicode="3" horiz-adv-x="571" 
d="M420 203c0 134 -120 181 -185 194c-19 4 -26 6 -26 13s10 10 23 12c49 9 159 57 159 174c0 42 -26 135 -144 135c-73 0 -126 -41 -126 -118c0 -10 -4 -12 -7 -12s-6 2 -7 11c-4 32 -7 77 -7 100c0 9 1 13 13 21c31 15 87 34 162 34c163 0 198 -100 198 -150
c0 -100 -103 -166 -134 -180v-5c63 -15 165 -76 165 -192c0 -140 -121 -257 -299 -257c-41 0 -101 12 -122 24c-14 9 -16 16 -16 28c0 47 4 103 7 125c1 10 3 15 8 15s6 -3 7 -14c7 -77 45 -135 150 -135c101 0 181 58 181 177z" />
    <glyph glyph-name="four" unicode="4" horiz-adv-x="571" 
d="M416 600v-321h76c27 0 37 11 41 11c5 0 5 -7 5 -12s-5 -28 -9 -40c-5 -10 -9 -13 -21 -13h-92c0 -33 -2 -110 2 -154c3 -30 11 -47 43 -55c14 -3 34 -4 44 -4c5 0 9 -4 9 -8c0 -5 -5 -7 -16 -7c-55 0 -119 3 -126 3s-61 -3 -116 -3c-11 0 -16 2 -16 7c0 4 3 8 8 8
c9 0 31 1 47 3c33 5 40 26 43 56c4 44 2 121 2 154h-305c-12 0 -21 3 -21 12c0 8 5 16 9 21c6 7 331 447 363 491c8 11 14 18 21 18s10 -7 10 -17c0 -15 -1 -95 -1 -150zM340 279v354h-2c-15 -26 -235 -329 -254 -354h256z" />
    <glyph glyph-name="five" unicode="5" horiz-adv-x="571" 
d="M190 687l-14 -154c127 -19 312 -96 312 -274c0 -129 -98 -276 -300 -276c-30 0 -67 4 -92 18c-17 9 -19 18 -19 28c0 34 -1 94 4 126c2 10 5 18 9 18c6 0 8 -5 8 -17c0 -107 64 -129 137 -129c84 0 176 56 176 194c0 161 -177 239 -254 243c-20 1 -27 7 -26 18l23 255
c1 10 8 13 19 13h235c28 0 46 2 58 4c12 1 18 3 21 3c4 0 7 -2 7 -10c0 -9 -3 -53 -13 -126c-1 -5 -4 -11 -8 -11s-6 6 -6 13c0 38 -9 64 -88 64h-189z" />
    <glyph glyph-name="six" unicode="6" horiz-adv-x="571" 
d="M446 195c0 139 -90 210 -151 210c-26 0 -52 -2 -75 -13c-3 -1 -10 -4 -13 -4s-4 3 -4 8s3 8 9 12c20 14 60 35 116 35c139 0 201 -114 201 -203c0 -79 -28 -147 -72 -190c-47 -45 -99 -67 -173 -67c-140 0 -235 106 -235 288c0 194 152 405 346 489c9 4 17 7 21 7
s8 -3 8 -9c0 -8 -9 -12 -19 -18c-128 -71 -269 -232 -269 -469c0 -117 52 -250 167 -250c80 0 143 64 143 174z" />
    <glyph glyph-name="seven" unicode="7" horiz-adv-x="571" 
d="M202 750h324c13 0 18 -4 18 -10c0 -4 -1 -11 -6 -19c-81 -120 -246 -512 -261 -642c-2 -17 0 -24 0 -35c0 -20 -78 -61 -98 -61c-6 0 -9 3 -9 10c0 10 3 25 6 34c39 131 147 398 298 660h-246c-29 0 -69 -5 -93 -25c-21 -17 -35 -49 -38 -77c-1 -9 -4 -14 -9 -14
s-6 5 -6 16c0 32 15 149 15 159s4 14 10 14s30 -10 95 -10z" />
    <glyph glyph-name="eight" unicode="8" horiz-adv-x="571" 
d="M53 177c0 112 87 187 178 223c-78 46 -140 99 -140 188c0 76 67 179 213 179c104 0 183 -55 183 -153c0 -105 -87 -165 -143 -193c66 -34 174 -95 174 -218c0 -116 -95 -220 -238 -220c-125 0 -227 73 -227 194zM288 21c92 0 153 70 153 159c0 109 -86 157 -176 204
c-74 -36 -135 -97 -135 -197c0 -89 65 -166 158 -166zM292 733c-90 0 -130 -71 -130 -126c0 -84 66 -126 148 -170c39 23 107 63 107 165c0 76 -48 131 -125 131z" />
    <glyph glyph-name="nine" unicode="9" horiz-adv-x="571" 
d="M288 767c141 0 229 -120 229 -272c0 -281 -224 -454 -346 -515c-6 -3 -12 -4 -16 -4s-8 4 -8 10s4 11 10 14c118 65 272 231 272 466c0 175 -77 264 -165 264c-90 0 -137 -74 -137 -153c0 -166 123 -199 150 -199c47 0 67 10 80 18c6 4 10 6 13 6s5 -4 5 -7s-1 -5 -4 -8
c-29 -31 -80 -46 -120 -46c-142 0 -202 109 -202 193c0 138 101 233 239 233z" />
    <glyph glyph-name="colon" unicode=":" horiz-adv-x="250" 
d="M124 30c-38 0 -54 30 -54 55c0 23 16 55 55 55c31 0 55 -20 55 -52s-22 -58 -56 -58zM124 368c-38 0 -54 30 -54 55c0 23 16 55 55 55c31 0 55 -20 55 -52s-22 -58 -56 -58z" />
    <glyph glyph-name="semicolon" unicode=";" horiz-adv-x="250" 
d="M116 -2c0 46 -34 59 -34 71c0 28 36 54 62 54c5 0 8 -3 18 -19c13 -20 17 -34 17 -43c0 -8 -5 -26 -10 -39c-10 -23 -36 -76 -64 -107c-4 -5 -9 -9 -13 -9c-3 0 -7 3 -7 7s5 10 7 14c17 29 24 52 24 71zM124 368c-38 0 -54 30 -54 55c0 23 16 55 55 55
c31 0 55 -20 55 -52s-22 -58 -56 -58z" />
    <glyph glyph-name="less" unicode="&#x3c;" horiz-adv-x="510" 
d="M25 237v53l426 196v-53l-371 -170l371 -171v-53z" />
    <glyph glyph-name="equal" unicode="=" horiz-adv-x="510" 
d="M468 329h-426v51h426v-51zM468 153h-426v51h426v-51z" />
    <glyph glyph-name="greater" unicode="&#x3e;" horiz-adv-x="510" 
d="M468 237l-426 -198v53l372 171l-372 170v53l426 -196v-53z" />
    <glyph glyph-name="question" unicode="?" horiz-adv-x="488" 
d="M223 733c-49 0 -82 -19 -98 -39c-24 -29 -32 -59 -35 -93c-1 -10 -3 -17 -8 -17s-7 3 -8 10c-3 14 -4 78 -4 117c0 6 1 10 11 16c30 18 89 40 166 40c132 0 181 -84 181 -156c0 -117 -76 -168 -172 -287c-37 -47 -41 -63 -41 -80c0 -15 5 -32 19 -51c7 -9 9 -14 9 -17
c0 -4 -7 -9 -11 -9c-9 0 -30 20 -42 35c-20 25 -29 41 -29 59c0 14 7 31 22 50c23 30 47 55 69 83c70 89 88 144 88 210c0 49 -26 129 -117 129zM224 -17c-35 0 -50 28 -50 51c0 21 15 51 51 51c29 0 51 -19 51 -48c0 -30 -21 -54 -52 -54z" />
    <glyph glyph-name="at" unicode="@" horiz-adv-x="906" 
d="M840 391c0 -104 -51 -197 -134 -252c-42 -28 -84 -42 -125 -42c-31 0 -61 19 -70 51c-8 29 -9 48 -6 100l-3 1c-66 -99 -140 -148 -182 -148c-29 0 -53 43 -53 95c0 142 90 216 119 238c44 33 97 56 129 56c30 0 47 -8 56 -12c9 11 39 37 58 43c6 2 10 -5 8 -11
c-5 -8 -25 -38 -37 -80c-11 -37 -23 -113 -26 -153c-6 -71 -5 -138 63 -138c80 0 157 96 157 249c0 145 -97 261 -285 261c-234 0 -376 -184 -376 -422c0 -188 119 -298 286 -298c133 0 196 37 263 91c16 13 25 12 27 7c2 -4 -1 -12 -16 -27c-52 -51 -162 -108 -296 -108
c-179 0 -331 103 -331 327c0 242 208 455 450 455c219 0 324 -118 324 -283zM545 437c-10 6 -40 18 -61 18c-49 0 -86 -28 -114 -92c-19 -45 -30 -100 -30 -144c0 -25 8 -61 24 -61c36 0 110 83 145 141c12 58 17 83 36 138z" />
    <glyph glyph-name="A" unicode="A" horiz-adv-x="700" 
d="M95 107l227 621c12 33 16 39 22 39s10 -5 22 -36c15 -38 172 -451 233 -603c36 -89 65 -105 86 -111c15 -5 30 -6 40 -6c6 0 10 -1 10 -6c0 -6 -9 -8 -20 -8c-15 0 -88 0 -157 2c-19 1 -30 1 -30 7c0 4 3 6 7 7c6 2 12 11 6 27l-93 246c-2 4 -4 6 -9 6h-215
c-5 0 -8 -3 -10 -8l-60 -177c-9 -25 -14 -49 -14 -67c0 -20 21 -29 38 -29h10c7 0 10 -2 10 -6c0 -6 -6 -8 -15 -8c-24 0 -67 3 -78 3s-66 -3 -113 -3c-13 0 -19 2 -19 8c0 4 4 6 9 6c7 0 21 1 29 2c46 6 66 44 84 94zM235 328h191c5 0 5 3 4 7l-95 270c-5 15 -10 15 -15 0
l-88 -270c-2 -5 0 -7 3 -7z" />
    <glyph glyph-name="B" unicode="B" horiz-adv-x="687" 
d="M178 287v176c0 156 0 184 -2 216c-2 34 -10 50 -43 57c-8 2 -25 3 -34 3c-4 0 -8 2 -8 6c0 6 5 8 16 8c45 0 108 -3 113 -3c24 0 63 3 109 3c164 0 200 -100 200 -150c0 -82 -47 -131 -94 -180c74 -23 173 -94 173 -211c0 -107 -84 -218 -255 -218c-11 0 -43 2 -72 3
c-29 2 -57 3 -61 3c-2 0 -19 0 -40 -1c-20 0 -43 -2 -58 -2c-11 0 -16 2 -16 8c0 3 2 6 8 6c9 0 21 2 30 4c20 4 25 26 29 55c5 42 5 121 5 217zM258 709v-268c0 -7 2 -9 7 -11c6 -1 24 -4 61 -4c56 0 70 2 91 26s36 60 36 101c0 83 -37 172 -135 172c-11 0 -32 -1 -48 -5
c-9 -2 -12 -5 -12 -11zM258 392v-57c0 -77 0 -201 1 -216c3 -49 3 -63 34 -78c27 -13 70 -15 88 -15c54 0 141 29 141 142c0 60 -20 147 -97 200c-34 23 -59 26 -83 29c-13 2 -63 2 -78 2c-4 0 -6 -2 -6 -7z" />
    <glyph glyph-name="C" unicode="C" horiz-adv-x="805" 
d="M515 -17c-150 0 -251 37 -330 108c-97 87 -121 201 -121 296c0 67 23 184 112 273c60 60 151 107 305 107c40 0 96 -3 145 -12c38 -7 70 -13 102 -15c11 -1 13 -5 13 -11c0 -8 -3 -20 -5 -56c-2 -33 -2 -88 -3 -103s-3 -21 -9 -21c-7 0 -8 7 -8 21c0 39 -16 80 -42 102
c-35 30 -112 57 -200 57c-133 0 -195 -39 -230 -73c-73 -70 -90 -159 -90 -261c0 -191 147 -366 361 -366c75 0 134 9 174 50c21 22 34 66 37 84c2 11 4 15 10 15c5 0 7 -7 7 -15c0 -7 -12 -94 -22 -128c-6 -19 -8 -21 -26 -29c-40 -16 -116 -23 -180 -23z" />
    <glyph glyph-name="D" unicode="D" horiz-adv-x="917" 
d="M178 287v176c0 156 0 184 -2 216c-2 34 -10 50 -43 57c-8 2 -25 3 -34 3c-4 0 -8 2 -8 6c0 6 5 8 16 8c45 0 108 -3 113 -3c12 0 75 3 135 3c99 0 282 9 401 -114c50 -52 97 -135 97 -254c0 -126 -52 -223 -108 -282c-43 -45 -133 -115 -303 -115c-43 0 -96 3 -139 6
c-44 3 -78 6 -83 6c-2 0 -19 0 -40 -1c-20 0 -43 -2 -58 -2c-11 0 -16 2 -16 8c0 3 2 6 8 6c9 0 21 2 30 4c20 4 25 26 29 55c5 42 5 121 5 217zM262 479v-124c0 -106 1 -198 2 -217c1 -25 3 -65 11 -76c13 -19 52 -40 170 -40c93 0 179 34 238 93c52 51 80 147 80 239
c0 127 -55 209 -96 252c-94 99 -208 113 -327 113c-20 0 -57 -3 -65 -7c-9 -4 -12 -9 -12 -20c-1 -34 -1 -136 -1 -213z" />
    <glyph glyph-name="E" unicode="E" horiz-adv-x="610" 
d="M178 287v176c0 156 0 184 -2 216c-2 34 -10 50 -43 57c-8 2 -25 3 -34 3c-4 0 -8 2 -8 6c0 6 5 8 16 8c23 0 50 0 72 -1l41 -2c7 0 206 0 229 1c19 1 35 3 43 5c5 1 9 5 14 5c3 0 4 -4 4 -9c0 -7 -5 -19 -8 -47c-1 -10 -3 -54 -5 -66c-1 -5 -3 -11 -7 -11
c-6 0 -8 5 -8 13c0 7 -1 24 -6 36c-7 16 -17 28 -71 34c-17 2 -126 3 -137 3c-4 0 -6 -3 -6 -10v-276c0 -7 1 -10 6 -10c13 0 136 0 159 2c24 2 38 4 47 14c7 8 11 13 15 13c3 0 5 -2 5 -8s-5 -23 -8 -56c-2 -20 -4 -57 -4 -64c0 -8 0 -19 -7 -19c-5 0 -7 4 -7 9
c0 10 0 20 -4 33c-4 14 -13 31 -52 35c-27 3 -126 5 -143 5c-5 0 -7 -3 -7 -7v-88c0 -34 -1 -150 0 -171c3 -69 18 -82 116 -82c26 0 70 0 96 11s38 31 45 72c2 11 4 15 9 15c6 0 6 -8 6 -15c0 -8 -8 -76 -13 -97c-7 -26 -15 -26 -54 -26c-75 0 -130 2 -169 3
c-39 2 -63 3 -78 3c-2 0 -19 0 -40 -1c-20 0 -43 -2 -58 -2c-11 0 -16 2 -16 8c0 3 2 6 8 6c9 0 21 2 30 4c20 4 25 26 29 55c5 42 5 121 5 217z" />
    <glyph glyph-name="F" unicode="F" horiz-adv-x="592" 
d="M178 287v176c0 156 0 184 -2 216c-2 34 -10 50 -43 57c-8 2 -25 3 -34 3c-4 0 -8 2 -8 6c0 6 5 8 16 8c23 0 50 0 72 -1l41 -2c20 -1 223 0 246 1c19 1 35 1 44 4c6 2 10 6 14 6s6 -4 6 -9c0 -7 -5 -19 -8 -47c-1 -10 -3 -54 -5 -66c-1 -5 -3 -11 -8 -11s-7 5 -7 12
c0 8 -3 25 -9 38s-29 31 -68 32l-154 3c-6 0 -9 -3 -9 -11v-276c0 -6 1 -9 7 -9l128 1c17 0 31 0 45 1c24 2 37 5 46 18c4 5 7 10 11 10s5 -3 5 -8c0 -6 -5 -23 -8 -56c-2 -20 -4 -60 -4 -67c0 -9 0 -19 -7 -19c-5 0 -7 4 -7 9c-1 10 -2 24 -6 36c-5 14 -21 32 -52 36
c-25 3 -134 3 -151 3c-5 0 -7 -2 -7 -9v-85c0 -96 0 -175 5 -217c3 -29 9 -51 39 -55c14 -2 36 -4 45 -4c6 0 8 -3 8 -6c0 -5 -5 -8 -16 -8c-55 0 -118 3 -123 3s-68 -3 -98 -3c-11 0 -16 2 -16 8c0 3 2 6 8 6c9 0 21 2 30 4c20 4 25 26 29 55c5 42 5 121 5 217z" />
    <glyph glyph-name="G" unicode="G" horiz-adv-x="862" 
d="M653 82v170c0 81 -5 92 -45 103c-8 2 -25 3 -34 3c-4 0 -8 2 -8 6c0 6 5 8 16 8c45 0 108 -3 113 -3s68 3 98 3c11 0 16 -2 16 -8c0 -4 -4 -6 -8 -6c-7 0 -13 -1 -25 -3c-27 -5 -35 -22 -37 -57c-2 -32 -2 -62 -2 -104v-112c0 -45 -1 -47 -13 -54
c-64 -34 -154 -45 -212 -45c-76 0 -218 10 -329 107c-61 53 -119 160 -119 285c0 160 78 273 167 329c90 56 189 63 266 63c63 0 134 -13 153 -17c21 -5 56 -9 81 -10c10 -1 12 -5 12 -9c0 -14 -7 -42 -7 -142c0 -16 -2 -21 -9 -21c-5 0 -6 6 -7 15c-1 14 -6 42 -21 66
c-25 38 -106 81 -235 81c-63 0 -138 -6 -214 -66c-58 -46 -99 -137 -99 -254c0 -141 71 -243 106 -277c79 -77 170 -107 262 -107c36 0 88 6 114 21c13 7 20 18 20 35z" />
    <glyph glyph-name="H" unicode="H" horiz-adv-x="960" 
d="M782 463v-176c0 -96 0 -175 5 -217c3 -29 9 -51 39 -55c14 -2 36 -4 45 -4c6 0 8 -3 8 -6c0 -5 -5 -8 -16 -8c-55 0 -118 3 -123 3s-68 -3 -98 -3c-11 0 -16 2 -16 8c0 3 2 6 8 6c9 0 21 2 30 4c20 4 25 26 29 55c5 42 5 121 5 217v105c0 4 -3 6 -6 6h-424
c-3 0 -6 -1 -6 -6v-105c0 -96 0 -175 5 -217c3 -29 9 -51 39 -55c14 -2 36 -4 45 -4c6 0 8 -3 8 -6c0 -5 -5 -8 -16 -8c-55 0 -118 3 -123 3s-68 -3 -98 -3c-11 0 -16 2 -16 8c0 3 2 6 8 6c9 0 21 2 30 4c20 4 25 26 29 55c5 42 5 121 5 217v176c0 156 0 184 -2 216
c-2 34 -10 50 -43 57c-8 2 -25 3 -34 3c-4 0 -8 2 -8 6c0 6 5 8 16 8c45 0 108 -3 113 -3s68 3 98 3c11 0 16 -2 16 -8c0 -4 -4 -6 -8 -6c-7 0 -13 -1 -25 -3c-27 -5 -35 -22 -37 -57c-2 -32 -2 -60 -2 -216v-21c0 -5 3 -6 6 -6h424c3 0 6 1 6 6v21c0 156 0 184 -2 216
c-2 34 -10 50 -43 57c-8 2 -25 3 -34 3c-4 0 -8 2 -8 6c0 6 5 8 16 8c45 0 108 -3 113 -3s68 3 98 3c11 0 16 -2 16 -8c0 -4 -4 -6 -8 -6c-7 0 -13 -1 -25 -3c-27 -5 -35 -22 -37 -57c-2 -32 -2 -60 -2 -216z" />
    <glyph glyph-name="I" unicode="I" horiz-adv-x="440" 
d="M262 463v-176c0 -96 0 -175 5 -217c3 -29 9 -51 39 -55c14 -2 36 -4 45 -4c6 0 8 -3 8 -6c0 -5 -5 -8 -16 -8c-55 0 -118 3 -123 3s-68 -3 -98 -3c-11 0 -16 2 -16 8c0 3 2 6 8 6c9 0 21 2 30 4c20 4 25 26 29 55c5 42 5 121 5 217v176c0 156 0 184 -2 216
c-2 34 -12 51 -34 56c-11 3 -24 4 -31 4c-4 0 -8 2 -8 6c0 6 5 8 16 8c33 0 96 -3 101 -3s68 3 98 3c11 0 16 -2 16 -8c0 -4 -4 -6 -8 -6c-7 0 -13 -1 -25 -3c-27 -5 -35 -22 -37 -57c-2 -32 -2 -60 -2 -216z" />
    <glyph glyph-name="J" unicode="J" horiz-adv-x="414" 
d="M262 463v-240c0 -162 0 -224 -30 -295c-21 -50 -65 -97 -146 -153c-13 -9 -29 -20 -39 -25c-2 -1 -4 -2 -7 -2s-7 2 -7 6c0 6 5 9 14 15c12 7 26 19 35 28c65 66 96 119 96 377v289c0 156 0 184 -2 216c-2 34 -10 50 -43 57c-8 2 -25 3 -34 3c-4 0 -8 2 -8 6
c0 6 5 8 16 8c45 0 108 -3 113 -3s68 3 98 3c11 0 16 -2 16 -8c0 -4 -4 -6 -8 -6c-7 0 -13 -1 -25 -3c-27 -5 -35 -22 -37 -57c-2 -32 -2 -60 -2 -216z" />
    <glyph glyph-name="K" unicode="K" horiz-adv-x="752" 
d="M178 287v176c0 156 0 184 -2 216c-2 34 -10 50 -43 57c-8 2 -25 3 -34 3c-4 0 -8 2 -8 6c0 6 5 8 16 8c45 0 104 -3 110 -3c9 0 67 3 97 3c11 0 16 -2 16 -8c0 -4 -4 -6 -8 -6c-7 0 -13 -1 -25 -3c-27 -5 -35 -22 -37 -57c-2 -32 -2 -60 -2 -216v-60h4
c17 19 198 203 234 242c28 29 54 55 54 72c0 12 -5 18 -13 21c-5 2 -9 4 -9 8c0 5 5 7 12 7c20 0 51 -3 75 -3c5 0 71 3 96 3c11 0 15 -2 15 -7s-2 -7 -10 -7c-15 0 -36 -5 -56 -14c-41 -18 -63 -43 -108 -86c-25 -24 -199 -194 -220 -219c26 -29 234 -244 275 -282
c84 -78 101 -94 149 -114c26 -11 55 -13 62 -13s13 -2 13 -6c0 -5 -5 -8 -22 -8h-51c-28 0 -47 0 -69 2c-53 5 -78 27 -121 61c-45 37 -257 266 -305 325h-5v-98c0 -96 0 -175 5 -217c3 -29 9 -51 39 -55c14 -2 30 -4 39 -4c6 0 8 -3 8 -6c0 -5 -5 -8 -16 -8
c-49 0 -107 3 -115 3s-66 -3 -96 -3c-11 0 -16 2 -16 8c0 3 2 6 8 6c9 0 21 2 30 4c20 4 25 26 29 55c5 42 5 121 5 217z" />
    <glyph glyph-name="L" unicode="L" horiz-adv-x="592" 
d="M262 463v-178c0 -147 4 -211 22 -229c16 -16 42 -23 120 -23c53 0 97 1 121 30c13 16 23 41 26 60c1 8 3 13 9 13c5 0 6 -4 6 -15s-7 -71 -15 -100c-7 -23 -10 -27 -63 -27c-72 0 -124 2 -166 3c-42 2 -73 3 -102 3c-4 0 -21 -1 -41 -1c-20 -1 -42 -2 -57 -2
c-11 0 -16 2 -16 8c0 3 2 6 8 6c9 0 21 2 30 4c20 4 25 26 29 55c5 42 5 121 5 217v176c0 156 0 184 -2 216c-2 34 -10 50 -43 57c-8 2 -25 3 -34 3c-4 0 -8 2 -8 6c0 6 5 8 16 8c45 0 108 -3 113 -3s78 3 108 3c11 0 16 -2 16 -8c0 -4 -4 -6 -8 -6c-7 0 -21 -1 -33 -3
c-29 -5 -37 -22 -39 -57c-2 -32 -2 -60 -2 -216z" />
    <glyph glyph-name="M" unicode="M" horiz-adv-x="1050" 
d="M855 740l67 -614c4 -36 11 -92 54 -106c29 -9 55 -9 65 -9c5 0 8 -1 8 -5c0 -6 -9 -9 -21 -9c-22 0 -130 3 -167 6c-23 2 -28 5 -28 10c0 4 2 6 7 7s6 18 4 36l-48 516h-3l-245 -520c-21 -44 -24 -53 -33 -53c-7 0 -12 10 -31 46c-26 49 -112 222 -117 232
c-9 18 -121 258 -132 285h-4l-40 -464c-1 -16 -1 -34 -1 -51c0 -15 11 -28 26 -31c17 -4 32 -5 38 -5c4 0 8 -2 8 -5c0 -7 -6 -9 -18 -9c-37 0 -85 3 -93 3c-9 0 -57 -3 -84 -3c-10 0 -17 2 -17 9c0 3 5 5 10 5c8 0 15 0 30 3c33 6 36 45 40 83l72 652c1 11 5 18 11 18
s10 -4 15 -15l306 -629l294 628c4 9 8 16 15 16s10 -8 12 -27z" />
    <glyph glyph-name="N" unicode="N" horiz-adv-x="947" 
d="M192 612l13 -479c2 -82 12 -108 39 -116c19 -5 41 -6 50 -6c5 0 8 -2 8 -6c0 -6 -6 -8 -18 -8c-57 0 -97 3 -106 3s-51 -3 -96 -3c-10 0 -16 1 -16 8c0 4 3 6 8 6c8 0 26 1 41 6c25 7 30 36 30 127l1 573c0 39 3 50 11 50s25 -22 35 -32c15 -17 164 -178 318 -343
c99 -106 208 -228 240 -261l-11 508c-1 65 -8 87 -39 95c-18 4 -41 5 -49 5c-7 0 -8 3 -8 7c0 6 8 7 20 7c45 0 93 -3 104 -3s44 3 85 3c11 0 18 -1 18 -7c0 -4 -4 -7 -11 -7c-5 0 -12 0 -24 -3c-33 -7 -37 -29 -37 -89l-2 -586c0 -66 -2 -71 -9 -71c-8 0 -20 11 -73 64
c-11 10 -155 157 -261 271c-116 125 -229 251 -261 287z" />
    <glyph glyph-name="O" unicode="O" horiz-adv-x="915" 
d="M64 376c0 162 118 391 394 391c225 0 393 -142 393 -375c0 -224 -158 -409 -399 -409c-274 0 -388 213 -388 393zM159 404c0 -233 140 -383 320 -383c90 0 276 52 276 343c0 240 -146 369 -304 369c-167 0 -292 -110 -292 -329z" />
    <glyph glyph-name="P" unicode="P" horiz-adv-x="642" 
d="M178 287v176c0 156 0 184 -2 216c-2 34 -10 50 -43 57c-8 2 -25 3 -34 3c-4 0 -8 2 -8 6c0 6 5 8 16 8c45 0 105 -3 113 -3c22 0 80 3 126 3c125 0 170 -42 186 -57c22 -21 50 -66 50 -119c0 -142 -104 -238 -246 -238c-5 0 -16 0 -21 1c-5 0 -11 2 -11 7c0 8 6 9 27 9
c97 0 173 71 173 163c0 33 -3 100 -56 154s-114 50 -137 50c-17 0 -34 -2 -43 -6c-6 -2 -8 -9 -8 -19v-411c0 -96 0 -175 5 -217c3 -29 9 -51 39 -55c14 -2 36 -4 45 -4c6 0 8 -3 8 -6c0 -5 -5 -8 -16 -8c-55 0 -118 3 -123 3c-3 0 -66 -3 -96 -3c-11 0 -16 2 -16 8
c0 3 2 6 8 6c9 0 21 2 30 4c20 4 25 26 29 55c5 42 5 121 5 217z" />
    <glyph glyph-name="Q" unicode="Q" horiz-adv-x="920" 
d="M780 -76l-168 93c-36 -19 -104 -34 -157 -34c-277 0 -391 213 -391 393c0 162 118 391 394 391c225 0 393 -143 393 -375c0 -176 -111 -293 -177 -336l205 -106c219 -113 371 -118 421 -118s128 11 197 39c6 2 11 4 14 4c4 0 6 -3 6 -6c0 -4 -2 -7 -8 -10
c-57 -26 -169 -69 -317 -69c-121 0 -250 44 -412 134zM159 404c0 -233 140 -383 320 -383c90 0 276 52 276 343c0 240 -146 369 -304 369c-167 0 -292 -110 -292 -329z" />
    <glyph glyph-name="R" unicode="R" horiz-adv-x="754" 
d="M178 287v176c0 156 0 184 -2 216c-2 34 -10 50 -43 57c-8 2 -25 3 -34 3c-4 0 -8 2 -8 6c0 6 5 8 16 8c45 0 108 -3 113 -3c11 0 87 3 118 3c63 0 130 -6 183 -44c25 -18 69 -67 69 -136c0 -74 -31 -148 -121 -231c82 -105 150 -194 208 -256c54 -57 97 -68 122 -72
c19 -3 33 -3 39 -3c5 0 9 -3 9 -6c0 -6 -6 -8 -24 -8h-71c-56 0 -81 5 -107 19c-43 23 -78 72 -135 147c-42 55 -89 122 -109 148c-4 4 -7 6 -13 6l-123 2c-5 0 -7 -3 -7 -8v-24c0 -96 0 -175 5 -217c3 -29 9 -51 39 -55c14 -2 36 -4 45 -4c6 0 8 -3 8 -6c0 -5 -5 -8 -16 -8
c-55 0 -118 3 -123 3c-1 0 -64 -3 -94 -3c-11 0 -16 2 -16 8c0 3 2 6 8 6c9 0 21 2 30 4c20 4 25 26 29 55c5 42 5 121 5 217zM258 703v-327c0 -5 2 -9 7 -12c15 -9 61 -16 105 -16c24 0 52 3 75 19c35 24 61 78 61 154c0 125 -66 200 -173 200c-30 0 -57 -3 -67 -6
c-5 -2 -8 -6 -8 -12z" />
    <glyph glyph-name="S" unicode="S" horiz-adv-x="570" 
d="M248 -17c-47 0 -93 7 -134 27c-14 7 -15 11 -15 38c0 50 4 90 5 106c1 11 3 16 8 16c6 0 7 -3 7 -11c0 -9 0 -23 3 -37c15 -74 81 -102 148 -102c96 0 143 69 143 133c0 69 -29 109 -115 180l-45 37c-106 87 -130 149 -130 217c0 107 80 180 207 180c39 0 68 -4 93 -10
c19 -4 27 -5 35 -5s10 -2 10 -7s-4 -38 -4 -106c0 -16 -2 -23 -7 -23c-6 0 -7 5 -8 13c-1 12 -7 39 -13 50s-33 53 -125 53c-69 0 -123 -43 -123 -116c0 -57 26 -93 122 -168l28 -22c118 -93 146 -155 146 -235c0 -41 -16 -117 -85 -166c-43 -30 -97 -42 -151 -42z" />
    <glyph glyph-name="T" unicode="T" horiz-adv-x="691" 
d="M391 710v-423c0 -96 0 -175 5 -217c3 -29 9 -51 39 -55c14 -2 36 -4 45 -4c6 0 8 -3 8 -6c0 -5 -5 -8 -16 -8c-55 0 -118 3 -123 3s-68 -3 -98 -3c-11 0 -16 2 -16 8c0 3 2 6 8 6c9 0 21 2 30 4c20 4 25 26 29 55c5 42 5 121 5 217v423l-148 -2c-62 -1 -86 -8 -102 -32
c-11 -17 -14 -24 -17 -31c-3 -8 -6 -10 -10 -10c-3 0 -5 3 -5 9c0 10 20 96 22 104c2 6 6 19 10 19c7 0 17 -10 44 -12c29 -3 67 -5 79 -5h375c32 0 55 2 71 5c15 2 24 5 28 5c5 0 5 -6 5 -12c0 -30 -3 -99 -3 -110c0 -9 -3 -13 -7 -13c-5 0 -7 3 -8 17l-1 11
c-3 30 -27 53 -123 55z" />
    <glyph glyph-name="U" unicode="U" horiz-adv-x="830" 
d="M120 317v146c0 156 0 184 -2 216c-2 34 -10 50 -43 57c-8 2 -25 3 -34 3c-4 0 -8 2 -8 6c0 6 5 8 16 8c45 0 106 -3 115 -3s69 3 99 3c11 0 16 -2 16 -8c0 -4 -4 -6 -8 -6c-7 0 -13 -1 -25 -3c-27 -4 -35 -22 -37 -57c-2 -32 -2 -60 -2 -216v-140c0 -144 32 -206 75 -247
c49 -46 94 -55 151 -55c61 0 121 29 157 72c46 57 58 142 58 245v125c0 156 0 184 -2 216c-2 34 -10 50 -43 57c-8 2 -25 3 -34 3c-4 0 -8 2 -8 6c0 6 5 8 16 8c45 0 100 -3 106 -3c7 0 54 3 84 3c11 0 16 -2 16 -8c0 -4 -4 -6 -8 -6c-7 0 -13 -1 -25 -3
c-27 -6 -35 -22 -37 -57c-2 -32 -2 -60 -2 -216v-107c0 -108 -12 -228 -92 -299c-72 -64 -147 -74 -206 -74c-34 0 -135 4 -206 71c-49 47 -87 117 -87 263z" />
    <glyph glyph-name="V" unicode="V" horiz-adv-x="742" 
d="M203 631l192 -512c58 134 192 483 214 555c5 15 9 29 9 38c0 8 -3 18 -13 23c-12 4 -27 4 -38 4c-6 0 -11 1 -11 6c0 6 6 8 22 8c40 0 86 -3 98 -3c6 0 49 3 78 3c11 0 17 -2 17 -7s-4 -7 -12 -7c-7 0 -29 0 -48 -12c-13 -9 -28 -26 -55 -94c-11 -28 -61 -148 -112 -271
c-61 -146 -106 -254 -129 -303c-28 -60 -32 -76 -42 -76c-12 0 -17 14 -36 62l-245 613c-22 56 -37 67 -72 77c-15 4 -32 4 -38 4s-8 3 -8 7c0 6 10 7 26 7c48 0 105 -3 117 -3c10 0 55 3 93 3c18 0 27 -2 27 -7s-3 -7 -10 -7c-11 0 -29 -1 -38 -5c-11 -5 -13 -13 -13 -20
c0 -13 12 -44 27 -83z" />
    <glyph glyph-name="W" unicode="W" horiz-adv-x="1100" 
d="M599 702l199 -567h4c27 92 119 382 154 510c10 37 11 51 11 64c0 18 -11 30 -57 30c-5 0 -9 3 -9 7c0 5 5 7 17 7c51 0 93 -3 102 -3c7 0 50 3 81 3c9 0 14 -2 14 -6c0 -5 -3 -8 -9 -8c-4 0 -23 -1 -34 -5c-30 -11 -46 -53 -65 -108c-44 -127 -145 -445 -184 -557
c-26 -74 -31 -86 -42 -86c-10 0 -16 13 -30 52l-196 556h-2c-36 -96 -173 -462 -209 -555c-16 -42 -21 -53 -33 -53c-10 0 -15 11 -35 79l-178 593c-16 53 -29 68 -55 78c-13 5 -38 6 -45 6c-5 0 -9 1 -9 7c0 5 6 7 16 7c52 0 107 -3 118 -3c9 0 53 3 103 3
c14 0 18 -3 18 -7c0 -6 -5 -7 -10 -7c-8 0 -27 0 -39 -6c-6 -3 -13 -11 -13 -24s9 -48 19 -92c15 -64 119 -431 134 -484h2l212 570c15 41 19 46 25 46c7 0 13 -13 25 -47z" />
    <glyph glyph-name="X" unicode="X" horiz-adv-x="694" 
d="M124 97l181 286l-160 269c-23 39 -44 68 -78 80c-16 5 -36 7 -42 7s-9 3 -9 7c0 5 4 7 17 7c28 0 109 -3 117 -3c9 0 60 3 94 3c14 0 17 -2 17 -7s-3 -7 -9 -7s-19 0 -27 -3c-9 -3 -12 -10 -12 -17c0 -10 4 -22 10 -33c42 -79 83 -153 135 -239c30 43 137 214 147 235
c7 15 10 24 10 36c0 7 -7 15 -17 18s-24 3 -30 3s-9 2 -9 7c0 4 5 7 17 7c38 0 80 -3 89 -3s50 3 84 3c11 0 16 -3 16 -7s-4 -7 -11 -7s-22 -1 -33 -5c-29 -9 -48 -38 -77 -81l-161 -242c19 -31 190 -322 211 -349c16 -21 30 -36 59 -45c14 -4 29 -6 35 -6c5 0 8 -2 8 -6
c0 -5 -5 -8 -14 -8c-61 0 -109 0 -160 2c-26 1 -31 3 -31 8c0 4 2 7 6 8c5 2 14 12 5 28c-54 98 -112 197 -172 298l-156 -265c-9 -16 -13 -34 -13 -44s7 -17 16 -19c6 -1 14 -2 19 -2s8 -3 8 -7c0 -5 -5 -7 -12 -7c-24 0 -87 3 -96 3s-58 -3 -91 -3c-8 0 -10 3 -10 7
s3 7 8 7c8 0 23 1 38 5c30 8 51 30 83 81z" />
    <glyph glyph-name="Y" unicode="Y" horiz-adv-x="654" 
d="M289 170v86c0 54 -10 76 -23 105c-7 16 -141 236 -176 288c-25 37 -50 62 -68 74c-15 10 -34 16 -43 16c-5 0 -10 2 -10 7c0 4 4 7 13 7c19 0 94 -3 99 -3c7 0 45 3 84 3c11 0 13 -3 13 -7s-6 -5 -15 -9c-8 -4 -13 -10 -13 -18c0 -12 5 -24 13 -39
c16 -29 166 -287 184 -316c19 42 146 261 166 294c13 21 17 38 17 51c0 14 -4 25 -16 28c-9 3 -15 5 -15 10c0 4 6 6 16 6c26 0 58 -3 66 -3c6 0 78 3 97 3c7 0 13 -2 13 -6c0 -5 -5 -8 -13 -8c-11 0 -30 -4 -46 -14c-20 -12 -31 -24 -53 -51c-33 -40 -173 -275 -191 -318
c-15 -36 -15 -67 -15 -100v-86c0 -16 0 -58 3 -100c2 -29 11 -51 41 -55c14 -2 36 -4 45 -4c6 0 8 -3 8 -6c0 -5 -5 -8 -16 -8c-55 0 -118 3 -123 3s-68 -3 -98 -3c-11 0 -16 2 -16 8c0 3 2 6 8 6c9 0 21 2 30 4c20 4 29 26 31 55c3 42 3 84 3 100z" />
    <glyph glyph-name="Z" unicode="Z" horiz-adv-x="692" 
d="M184 40h272c105 0 137 19 158 49c9 13 18 40 20 54c2 10 4 16 9 16c6 0 8 -4 8 -23c0 -31 -14 -90 -20 -115c-6 -24 -7 -26 -30 -26c-167 0 -335 5 -510 5c-12 0 -18 1 -18 8c0 5 2 10 14 28c149 225 300 450 439 676h-217c-51 0 -112 -3 -144 -20
c-36 -19 -54 -56 -57 -79c-2 -15 -6 -18 -11 -18s-6 5 -6 13c0 12 15 103 20 133c2 14 4 19 10 19c9 0 15 -6 42 -7c95 -4 143 -3 174 -3h279c15 0 20 -2 20 -8c0 -4 0 -6 -4 -12c-145 -230 -296 -460 -448 -690z" />
    <glyph glyph-name="bracketleft" unicode="[" horiz-adv-x="360" 
d="M97 -108v839c0 11 2 13 17 13h170c8 0 12 -2 12 -7c0 -4 -5 -7 -17 -8c-30 -3 -78 -7 -109 -21c-5 -21 -7 -51 -7 -93v-610c0 -42 2 -72 7 -93c30 -14 78 -18 108 -21c12 -1 17 -3 17 -8s-4 -7 -12 -7h-170c-15 0 -16 1 -16 16z" />
    <glyph glyph-name="backslash" unicode="\" horiz-adv-x="524" 
d="M503 6l-30 -20c-4 -2 -7 -3 -11 4l-441 709c-2 3 -2 7 2 10l28 17c7 4 10 2 14 -4l438 -702c5 -8 4 -12 0 -14z" />
    <glyph glyph-name="bracketright" unicode="]" horiz-adv-x="360" 
d="M263 728v-839c0 -11 -2 -13 -17 -13h-170c-8 0 -12 2 -12 7c0 4 5 7 17 8c30 3 78 7 109 21c5 21 7 51 7 93v610c0 42 -2 72 -7 93c-30 14 -78 18 -108 21c-12 1 -17 3 -17 8s4 7 12 7h170c15 0 16 -1 16 -16z" />
    <glyph glyph-name="asciicircum" unicode="^" horiz-adv-x="510" 
d="M229 751h52l199 -426h-54l-171 371l-171 -371h-54z" />
    <glyph glyph-name="underscore" unicode="_" horiz-adv-x="500" 
d="M0 -75h500v-50h-500v50z" />
    <glyph glyph-name="quoteleft" unicode="&#x2018;" horiz-adv-x="200" 
d="M115 659c0 -31 13 -57 20 -65c8 -9 9 -12 9 -17c0 -3 -5 -6 -9 -6c-16 0 -54 12 -70 18c-12 6 -17 11 -17 26c0 71 51 155 86 197c4 6 8 8 13 8c2 0 5 -2 5 -5s-1 -6 -4 -13c-15 -32 -33 -86 -33 -143z" />
    <glyph glyph-name="a" unicode="a" horiz-adv-x="624" 
d="M82 91l207 532c11 28 15 33 21 33c9 0 12 -12 21 -31c16 -36 157 -387 211 -516c32 -76 56 -87 75 -93c13 -4 26 -5 35 -5c5 0 11 -2 11 -7s-10 -7 -20 -7c-13 0 -78 0 -139 2c-17 1 -31 1 -31 6c0 4 2 4 6 6c5 2 14 9 8 23l-79 195c-2 4 -3 5 -8 5h-203
c-4 0 -7 -2 -9 -7l-50 -136c-8 -21 -13 -42 -13 -57c0 -17 15 -23 30 -23h8c7 0 9 -3 9 -7c0 -5 -5 -7 -13 -7c-21 0 -69 3 -79 3c-9 0 -53 -3 -89 -3c-11 0 -17 2 -17 7c0 4 4 7 8 7c6 0 19 1 26 2c40 5 57 35 74 78zM209 269h178c4 0 4 2 3 6l-87 233c-5 13 -10 13 -15 0
l-82 -233c-1 -4 0 -6 3 -6z" />
    <glyph glyph-name="b" unicode="b" horiz-adv-x="614" 
d="M155 244v150c0 132 0 156 -2 183c-2 29 -7 45 -36 49c-7 1 -22 2 -30 2c-3 0 -7 2 -7 5c0 5 4 7 14 7c40 0 97 -2 102 -2c21 0 62 2 103 2c147 0 185 -85 185 -130c0 -67 -44 -109 -89 -149c67 -20 155 -81 155 -177c0 -95 -71 -189 -221 -189c-16 0 -48 1 -76 3
c-28 1 -53 2 -57 2c-2 0 -18 -1 -36 -1c-18 -1 -39 -2 -53 -2c-9 0 -14 2 -14 7c0 3 2 5 7 5c8 0 19 3 27 4c17 3 19 22 23 47c5 35 5 102 5 184zM231 600v-224c0 -6 2 -8 6 -9c5 -1 21 -4 54 -4c49 0 68 2 86 22c19 21 34 50 34 91c0 65 -36 137 -124 137
c-10 0 -31 -1 -45 -4c-8 -2 -11 -4 -11 -9zM231 329v-47c0 -66 0 -168 1 -181c3 -41 3 -51 30 -64c24 -11 61 -12 77 -12c58 0 129 22 129 131c0 38 -15 111 -84 155c-30 19 -58 18 -79 22c-11 2 -55 2 -69 2c-3 0 -5 -2 -5 -6z" />
    <glyph glyph-name="c" unicode="c" horiz-adv-x="708" 
d="M452 -14c-132 0 -221 31 -290 91c-86 74 -107 171 -107 252c0 57 21 156 99 232c53 51 133 91 268 91c35 0 85 -3 128 -10c33 -6 61 -12 90 -13c9 0 11 -4 11 -9c0 -7 -2 -17 -4 -48c-1 -28 -1 -75 -2 -87c-1 -13 -5 -18 -10 -18c-6 0 -7 6 -7 18c0 33 -14 67 -37 85
c-31 26 -95 47 -173 47c-113 0 -167 -30 -198 -59c-65 -60 -79 -136 -79 -222c0 -163 129 -308 317 -308c66 0 110 5 145 40c19 19 31 55 34 71c2 9 3 12 9 12c4 0 8 -6 8 -12s-12 -80 -21 -109c-5 -16 -7 -19 -22 -25c-36 -14 -102 -19 -159 -19z" />
    <glyph glyph-name="d" unicode="d" horiz-adv-x="809" 
d="M155 244v150c0 132 0 156 -2 183c-2 29 -7 43 -36 47c-7 1 -22 2 -30 2c-3 0 -7 4 -7 7c0 5 4 7 14 7c40 0 97 -2 102 -2c10 0 66 2 118 2c88 0 249 8 353 -97c44 -44 86 -115 86 -216c0 -107 -46 -189 -95 -239c-38 -39 -117 -98 -267 -98c-38 0 -85 3 -123 5
c-38 3 -68 5 -72 5c-2 0 -18 -1 -36 -1c-18 -1 -39 -2 -53 -2c-9 0 -14 2 -14 7c0 3 2 7 7 7c8 0 19 2 27 4c17 4 19 20 23 45c5 35 5 102 5 184zM235 586v-284c0 -90 0 -169 1 -185c1 -21 3 -52 10 -61c11 -16 42 -34 146 -34c81 0 153 27 206 77c46 43 69 124 69 202
c0 108 -47 177 -83 213c-83 84 -180 95 -285 95c-17 0 -45 -3 -53 -6s-11 -7 -11 -17z" />
    <glyph glyph-name="e" unicode="e" horiz-adv-x="551" 
d="M155 244v150c0 132 0 156 -2 183c-2 29 -7 43 -36 47c-7 1 -22 2 -30 2c-3 0 -7 4 -7 7c0 5 4 7 14 7c40 0 97 -2 102 -2c6 0 190 -1 210 0c17 1 33 4 40 5c4 1 8 4 12 4c3 0 4 -4 4 -8c0 -6 -5 -16 -7 -40c-1 -8 -3 -46 -5 -56c-1 -4 -4 -9 -8 -9c-5 0 -7 4 -7 11
c0 6 -1 20 -5 30c-6 14 -15 20 -63 26c-15 2 -117 3 -127 3c-4 0 -5 -3 -5 -9v-231c0 -6 0 -9 5 -9c11 0 127 0 147 2c21 2 34 3 43 12c6 6 10 11 13 11s5 -2 5 -7s-5 -19 -7 -47c-2 -17 -4 -49 -4 -55c0 -7 -2 -16 -8 -16c-4 0 -6 3 -6 8c0 8 0 17 -4 28
c-3 12 -11 22 -45 26c-24 3 -118 4 -133 4c-5 0 -6 -3 -6 -6v-71c0 -29 -1 -128 0 -145c2 -57 18 -68 105 -68c23 0 65 0 88 9c23 10 35 25 40 59c2 10 4 13 9 13s6 -7 6 -13s-7 -64 -12 -82c-6 -22 -15 -22 -49 -22c-66 0 -117 2 -153 3c-37 2 -60 2 -73 2
c-2 0 -19 0 -38 -1c-17 -1 -37 -2 -51 -2c-9 0 -14 2 -14 7c0 3 2 7 7 7c8 0 19 3 27 4c17 3 19 20 23 45c5 35 5 102 5 184z" />
    <glyph glyph-name="f" unicode="f" 
d="M155 244v150c0 132 0 156 -2 183c-2 29 -7 43 -36 47c-7 1 -22 2 -30 2c-3 0 -7 4 -7 7c0 5 4 7 14 7c40 0 95 -2 100 -2c17 0 208 -1 228 0c17 1 32 1 40 4c5 1 9 5 12 5c4 0 6 -4 6 -8c0 -6 -4 -16 -7 -40c-1 -8 -2 -46 -4 -56c-1 -4 -4 -9 -8 -9s-7 4 -7 10
c0 7 -3 21 -8 32s-26 25 -60 25l-144 2c-5 0 -7 -2 -7 -9v-232c0 -5 0 -8 6 -8l120 1c15 0 28 0 40 1c21 2 33 5 41 15c4 5 8 9 11 9c4 0 5 -3 5 -7c0 -5 -6 -19 -8 -47c-2 -17 -3 -51 -3 -57c0 -8 -2 -17 -8 -17c-5 0 -6 4 -6 8c-1 9 -2 21 -6 31c-4 12 -18 23 -45 27
c-22 3 -126 2 -141 2c-5 0 -6 -2 -6 -8v-68c0 -84 0 -151 4 -184c3 -25 8 -41 32 -45c13 -2 32 -4 40 -4c5 0 7 -4 7 -7c0 -4 -4 -7 -14 -7c-49 0 -106 3 -110 3c-5 0 -60 -3 -87 -3c-9 0 -14 2 -14 7c0 3 2 7 7 7c8 0 19 3 27 4c17 3 19 20 23 45c5 35 5 102 5 184z" />
    <glyph glyph-name="g" unicode="g" horiz-adv-x="759" 
d="M569 67v147c0 69 -2 79 -38 86c-7 1 -22 2 -30 2c-3 0 -7 4 -7 7c0 6 4 7 14 7c40 0 99 -2 104 -2c4 0 59 2 86 2c10 0 14 -1 14 -7c0 -3 -4 -7 -7 -7c-6 0 -12 0 -22 -2c-24 -4 -31 -17 -33 -47c-1 -27 -1 -52 -1 -88v-95c0 -39 -1 -40 -12 -46
c-56 -29 -136 -38 -187 -38c-67 0 -192 8 -290 91c-54 45 -105 136 -105 242c0 136 69 232 147 279c79 48 167 54 234 54c56 0 118 -10 135 -14c18 -4 49 -9 71 -9c9 0 11 -4 11 -8c0 -12 -5 -35 -5 -120c0 -14 -4 -18 -10 -18c-5 0 -6 5 -6 13c-1 11 -6 36 -20 56
c-22 32 -89 66 -203 66c-53 0 -117 -4 -184 -55c-51 -39 -87 -115 -87 -214c0 -120 62 -206 93 -235c70 -65 144 -89 225 -89c31 0 72 3 95 16c11 6 18 10 18 26z" />
    <glyph glyph-name="h" unicode="h" horiz-adv-x="847" 
d="M692 394v-150c0 -82 1 -149 5 -184c3 -25 5 -41 32 -45c12 -2 32 -4 39 -4c6 0 8 -4 8 -7c0 -4 -5 -7 -15 -7c-48 0 -104 3 -109 3c-4 0 -61 -3 -87 -3c-10 0 -14 2 -14 7c0 3 2 7 7 7c8 0 18 2 26 4c18 4 21 21 24 46c4 35 4 99 4 181v85c0 4 -2 5 -5 5h-367
c-3 0 -5 -1 -5 -5v-85c0 -82 0 -147 4 -182c3 -25 6 -41 32 -45c13 -2 32 -4 40 -4c5 0 7 -4 7 -7c0 -4 -4 -7 -14 -7c-49 0 -105 3 -109 3c-5 0 -61 -3 -88 -3c-9 0 -14 2 -14 7c0 3 2 7 7 7c8 0 19 2 27 4c17 4 19 20 23 45c5 35 5 102 5 184v150c0 132 0 156 -2 183
c-2 29 -7 43 -36 47c-7 1 -22 2 -30 2c-3 0 -7 4 -7 7c0 5 4 7 14 7c40 0 96 -2 101 -2c4 0 60 2 87 2c10 0 14 -2 14 -7c0 -3 -4 -7 -7 -7c-6 0 -12 0 -22 -2c-24 -5 -29 -17 -31 -47c-1 -27 -1 -53 -1 -185v-18c0 -5 2 -5 5 -5h367c3 0 5 0 5 5v18c0 132 -1 158 -2 185
c-2 29 -6 43 -35 47c-7 1 -22 2 -30 2c-4 0 -7 4 -7 7c0 5 4 7 14 7c39 0 96 -2 100 -2c5 0 61 2 87 2c10 0 15 -2 15 -7c0 -3 -4 -7 -8 -7c-6 0 -11 0 -22 -2c-23 -5 -28 -17 -30 -47c-2 -27 -2 -51 -2 -183z" />
    <glyph glyph-name="i" unicode="i" horiz-adv-x="389" 
d="M235 394v-150c0 -82 0 -149 4 -184c3 -25 6 -41 32 -45c13 -2 32 -4 40 -4c5 0 7 -4 7 -7c0 -4 -4 -7 -14 -7c-49 0 -106 3 -110 3c-5 0 -60 -3 -87 -3c-9 0 -14 2 -14 7c0 3 2 7 7 7c8 0 19 2 27 4c17 4 20 20 23 45c4 35 5 102 5 184v150c0 132 0 156 -2 183
c-2 29 -9 42 -28 46c-10 2 -21 3 -27 3c-4 0 -7 4 -7 7c0 5 4 7 14 7c29 0 84 -2 89 -2c4 0 61 2 88 2c10 0 14 -2 14 -7c0 -3 -4 -7 -7 -7c-6 0 -12 0 -22 -2c-24 -5 -29 -17 -31 -47c-1 -27 -1 -51 -1 -183z" />
    <glyph glyph-name="j" unicode="j" horiz-adv-x="369" 
d="M235 394v-204c0 -138 -3 -191 -29 -251c-19 -43 -58 -83 -129 -130c-12 -8 -27 -17 -36 -22c-1 0 -3 -1 -6 -1c-2 0 -6 1 -6 5c0 5 3 9 11 14c11 6 23 16 31 23c57 57 84 101 84 320v246c0 132 0 156 -2 183c-2 29 -7 43 -36 47c-7 1 -22 2 -30 2c-3 0 -7 4 -7 7
c0 5 4 7 14 7c40 0 97 -2 102 -2c4 0 59 2 86 2c10 0 14 -2 14 -7c0 -3 -4 -7 -7 -7c-6 0 -12 0 -22 -2c-24 -5 -29 -17 -31 -47c-1 -27 -1 -51 -1 -183z" />
    <glyph glyph-name="k" unicode="k" horiz-adv-x="666" 
d="M155 244v150c0 132 0 156 -2 183c-2 29 -7 43 -36 47c-7 1 -22 2 -30 2c-3 0 -7 4 -7 7c0 5 4 7 14 7c40 0 94 -2 99 -2c8 0 61 2 87 2c10 0 14 -2 14 -7c0 -3 -3 -7 -7 -7c-6 0 -11 0 -22 -2c-23 -5 -29 -17 -31 -47c-2 -27 -2 -51 -2 -183v-51h4c14 16 171 171 204 205
c25 25 48 47 48 61c0 11 -4 16 -11 17c-5 1 -8 5 -8 8c0 4 4 6 10 6c18 0 45 -2 66 -2c5 0 63 2 85 2c9 0 13 -2 13 -6s-2 -7 -9 -7c-13 0 -32 -5 -49 -12c-36 -16 -53 -35 -92 -72c-22 -20 -172 -164 -191 -185c23 -25 206 -208 242 -241c74 -66 84 -77 126 -94
c23 -9 48 -12 54 -12s11 -3 11 -7s-4 -7 -19 -7h-45c-25 0 -41 0 -61 2c-46 4 -69 23 -107 52c-40 31 -225 226 -267 276h-4v-83c0 -82 0 -149 4 -184c3 -25 7 -41 34 -45c12 -2 26 -4 34 -4c5 0 7 -4 7 -7c0 -4 -4 -7 -14 -7c-43 0 -96 3 -103 3s-60 -3 -87 -3
c-9 0 -14 2 -14 7c0 3 2 7 7 7c8 0 19 2 27 4c17 4 19 20 23 45c5 35 5 102 5 184z" />
    <glyph glyph-name="l" unicode="l" 
d="M235 394v-152c0 -125 2 -176 18 -191c14 -14 48 -20 117 -20c46 0 85 1 106 26c11 13 18 31 21 48c1 6 4 11 9 11c4 0 6 -4 6 -13s-6 -60 -13 -85c-6 -20 -9 -23 -56 -23c-63 0 -112 1 -153 3c-40 1 -70 2 -96 2c-4 0 -19 0 -36 -1c-18 -1 -37 -2 -51 -2
c-9 0 -14 2 -14 7c0 3 2 7 7 7c8 0 19 2 27 4c17 4 19 20 23 45c5 35 5 102 5 184v150c0 132 0 156 -2 183c-2 29 -7 43 -36 47c-7 1 -22 2 -30 2c-3 0 -7 4 -7 7c0 5 4 7 14 7c40 0 95 -2 100 -2c4 0 70 2 97 2c9 0 14 -2 14 -7c0 -3 -4 -6 -7 -6c-6 0 -19 -1 -29 -2
c-26 -5 -31 -18 -33 -48c-1 -27 -1 -51 -1 -183z" />
    <glyph glyph-name="m" unicode="m" horiz-adv-x="924" 
d="M754 629l60 -522c3 -30 9 -76 45 -88c25 -8 48 -8 57 -8c4 0 7 -2 7 -6c0 -5 -8 -8 -18 -8c-20 0 -118 2 -150 5c-21 2 -25 5 -25 9c0 3 2 6 6 7c5 1 6 14 4 30l-42 430h-2l-212 -434c-18 -37 -23 -45 -31 -45s-13 8 -30 39c-23 42 -81 151 -103 197
c-26 54 -97 197 -112 232h-4l-34 -384c-1 -13 -1 -29 -1 -43c0 -13 8 -21 21 -24c15 -4 28 -5 34 -5c3 0 7 -3 7 -6c0 -6 -6 -8 -16 -8c-33 0 -75 3 -82 3c-8 0 -50 -3 -74 -3c-9 0 -15 2 -15 8c0 3 4 6 9 6c7 0 13 1 26 3c29 5 30 36 34 68l64 555c1 9 5 15 10 15
c6 0 13 -3 18 -13l266 -528l256 527c4 8 8 14 14 14s11 -7 13 -23z" />
    <glyph glyph-name="n" unicode="n" horiz-adv-x="833" 
d="M182 514l10 -401c2 -70 10 -91 34 -97c16 -4 36 -5 44 -5c4 0 7 -3 7 -7c0 -5 -6 -7 -16 -7c-50 0 -85 3 -93 3s-45 -3 -85 -3c-9 0 -14 1 -14 7c0 4 3 7 7 7c7 0 23 1 36 5c22 6 25 29 25 106v487c0 34 5 43 12 43c10 0 25 -17 34 -26c14 -14 142 -150 278 -290
c87 -90 181 -191 208 -219l-9 426c-1 55 -6 74 -33 79c-16 3 -36 4 -43 4c-6 0 -7 5 -7 8c0 5 7 6 17 6c40 0 82 -2 92 -2s39 2 75 2c9 0 16 -1 16 -6c0 -3 -4 -8 -10 -8c-4 0 -11 0 -21 -2c-29 -6 -31 -23 -31 -74l-2 -498c0 -56 -1 -61 -7 -61c-9 0 -18 7 -67 52
c-9 8 -136 133 -229 230c-102 107 -201 211 -228 241z" />
    <glyph glyph-name="o" unicode="o" horiz-adv-x="808" 
d="M55 320c0 137 106 332 349 332c198 0 348 -121 348 -319c0 -190 -141 -347 -353 -347c-241 0 -344 181 -344 334zM146 343c0 -198 119 -322 278 -322c79 0 238 42 238 288c0 204 -124 311 -263 311c-147 0 -253 -92 -253 -277z" />
    <glyph glyph-name="p" unicode="p" horiz-adv-x="586" 
d="M155 244v150c0 132 0 156 -2 183c-2 29 -7 43 -36 47c-7 1 -22 2 -30 2c-3 0 -7 4 -7 7c0 5 4 7 14 7c40 0 95 -2 102 -2c19 0 85 2 125 2c113 0 153 -35 168 -48c20 -18 44 -56 44 -102c0 -122 -92 -203 -227 -203c-5 0 -20 0 -25 1c-4 0 -9 4 -9 8c0 7 5 9 23 9
c95 0 163 60 163 137c0 28 -3 83 -50 129c-46 46 -99 41 -119 41c-15 0 -40 -4 -49 -6c-5 -1 -7 -7 -7 -16v-346c0 -82 0 -149 4 -184c3 -25 8 -41 35 -45c12 -2 31 -4 39 -4c5 0 7 -4 7 -7c0 -4 -4 -7 -14 -7c-48 0 -106 3 -110 3c-3 0 -60 -3 -87 -3c-9 0 -14 2 -14 7
c0 3 2 7 7 7c8 0 19 2 27 4c17 4 19 20 23 45c5 35 5 102 5 184z" />
    <glyph glyph-name="q" unicode="q" horiz-adv-x="810" 
d="M684 -67l-146 79c-32 -16 -92 -26 -139 -26c-243 0 -345 181 -345 334c0 137 106 332 349 332c198 0 348 -122 348 -319c0 -149 -97 -249 -155 -285l180 -89c192 -95 325 -100 369 -100s111 11 172 33c6 2 10 3 13 3s5 -4 5 -6c0 -4 -2 -7 -7 -9
c-50 -22 -150 -59 -280 -59c-107 0 -222 35 -364 112zM144 343c0 -196 119 -322 278 -322c79 0 239 43 239 288c0 202 -125 311 -264 311c-147 0 -253 -91 -253 -277z" />
    <glyph glyph-name="r" unicode="r" horiz-adv-x="672" 
d="M155 244v150c0 132 0 156 -2 183c-2 29 -7 43 -36 47c-7 1 -22 2 -30 2c-3 0 -7 4 -7 7c0 5 4 7 14 7c40 0 99 -2 104 -2c9 0 83 2 110 2c56 0 118 -5 164 -37c22 -16 61 -57 61 -116c0 -63 -26 -124 -108 -194c72 -90 133 -167 184 -220c47 -48 76 -56 98 -59
c17 -3 26 -3 31 -3s8 -4 8 -7c0 -5 -5 -7 -21 -7h-55c-50 0 -72 5 -94 17c-38 20 -70 61 -120 125c-37 46 -76 101 -95 124c-4 4 -6 5 -12 5l-112 2c-4 0 -6 -2 -6 -7v-20c0 -82 0 -148 4 -183c3 -25 8 -41 35 -45c12 -2 31 -4 39 -4c6 0 7 -4 7 -7c0 -4 -4 -7 -14 -7
c-48 0 -104 3 -108 3c-1 0 -60 -3 -87 -3c-9 0 -14 2 -14 7c0 3 2 7 7 7c8 0 19 2 27 4c17 4 19 20 23 45c5 35 5 102 5 184zM231 595v-273c0 -5 2 -8 6 -11c13 -7 58 -13 97 -13c21 0 45 1 66 15c30 20 53 65 53 130c0 106 -58 167 -152 167c-26 0 -54 -3 -63 -5
c-4 -2 -7 -5 -7 -10z" />
    <glyph glyph-name="s" unicode="s" horiz-adv-x="524" 
d="M209 -14c-41 0 -92 6 -128 23c-12 6 -13 9 -13 32c0 42 4 76 5 90c0 9 2 14 7 14s8 -3 8 -10s0 -19 3 -31c14 -62 80 -84 139 -84c87 0 132 49 132 113c0 61 -33 90 -111 148l-40 30c-95 71 -126 123 -126 182c0 100 79 160 195 160c35 0 70 -5 91 -10c17 -4 24 -4 31 -4
s9 -1 9 -6c0 -4 -4 -32 -4 -90c0 -13 -1 -19 -7 -19s-7 4 -8 11c-1 10 -8 33 -13 42c-6 10 -35 42 -114 42c-64 0 -117 -32 -117 -92c0 -54 27 -85 114 -144l25 -17c107 -73 144 -132 144 -205c0 -50 -19 -104 -82 -145c-37 -24 -92 -30 -140 -30z" />
    <glyph glyph-name="t" unicode="t" horiz-adv-x="610" 
d="M347 601v-357c0 -82 0 -149 4 -184c3 -25 7 -41 34 -45c12 -2 32 -4 40 -4c6 0 7 -4 7 -7c0 -4 -4 -7 -14 -7c-48 0 -104 3 -109 3c-4 0 -65 -3 -91 -3c-10 0 -14 2 -14 7c0 3 2 6 7 6c8 0 18 2 26 4c18 4 23 21 26 46c4 35 4 102 4 184v357l-127 -2
c-55 -1 -76 -7 -89 -27c-10 -15 -11 -21 -14 -27c-2 -7 -5 -8 -9 -8c-2 0 -6 2 -6 7c0 9 18 85 19 92c2 5 6 16 9 16c6 0 15 -7 39 -10c25 -3 59 -4 69 -4h332c29 0 49 2 63 4c13 2 21 4 25 4s4 -5 4 -10c0 -26 -3 -87 -3 -97c0 -7 -4 -11 -8 -11s-6 3 -7 15l-1 9
c-3 26 -22 45 -106 47z" />
    <glyph glyph-name="u" unicode="u" horiz-adv-x="732" 
d="M110 269v125c0 132 0 156 -2 183s-7 43 -36 47c-7 1 -22 2 -30 2c-3 0 -7 4 -7 7c0 5 4 7 14 7c40 0 93 -2 101 -2s63 2 89 2c10 0 15 -2 15 -7c0 -3 -4 -7 -8 -7c-6 0 -11 0 -22 -2c-23 -4 -28 -19 -30 -47c-2 -27 -2 -51 -2 -183v-119c0 -123 27 -174 65 -208
c43 -39 81 -46 131 -46c54 0 106 24 136 60c41 49 50 119 50 206v107c0 132 -1 156 -2 183s-6 43 -35 47c-7 1 -22 2 -30 2c-4 0 -7 4 -7 7c0 5 4 7 14 7c39 0 90 -2 95 -2c6 0 48 2 74 2c10 0 14 -2 14 -7c0 -3 -3 -7 -7 -7c-6 0 -11 0 -22 -2c-24 -5 -29 -19 -31 -47
c-2 -27 -1 -51 -1 -183v-91c0 -92 -12 -195 -82 -255c-64 -55 -132 -62 -184 -62c-29 0 -121 2 -183 60c-43 40 -77 99 -77 223z" />
    <glyph glyph-name="v" unicode="v" horiz-adv-x="653" 
d="M182 536l166 -428c51 114 166 404 185 465c4 13 8 25 8 32s-3 15 -12 18c-10 3 -20 3 -30 3c-5 0 -10 3 -10 7c0 5 6 7 20 7c35 0 75 -2 86 -2c5 0 43 2 69 2c9 0 14 -2 14 -6s-3 -8 -10 -8c-6 0 -26 0 -42 -10c-12 -8 -26 -20 -49 -78c-10 -24 -53 -126 -98 -230
c-54 -124 -93 -216 -113 -258c-24 -51 -29 -64 -38 -64c-10 0 -16 11 -33 52l-216 521c-20 48 -32 57 -61 64c-14 3 -29 3 -34 3s-7 5 -7 8c0 5 9 6 23 6c42 0 92 -2 103 -2c9 0 48 2 82 2c16 0 24 -2 24 -6s-3 -8 -9 -8c-10 0 -24 -1 -32 -4c-9 -4 -10 -9 -10 -15
c0 -11 11 -37 24 -71z" />
    <glyph glyph-name="w" unicode="w" horiz-adv-x="968" 
d="M530 597l172 -474h4c22 70 101 316 132 425c9 32 10 42 10 53c0 15 -7 25 -47 25c-5 0 -8 5 -8 8c0 4 4 6 15 6c45 0 82 -2 90 -2c6 0 44 2 71 2c8 0 12 -2 12 -5c0 -4 -2 -9 -8 -9c-3 0 -20 -1 -30 -4c-26 -9 -40 -43 -57 -90c-39 -108 -126 -378 -161 -473
c-23 -63 -28 -73 -38 -73c-9 0 -17 11 -29 44l-172 465c-30 -74 -149 -385 -181 -464c-15 -36 -21 -45 -31 -45c-9 0 -16 9 -34 67l-156 504c-14 45 -23 56 -46 64c-12 4 -34 5 -40 5c-4 0 -8 3 -8 8c0 4 6 6 14 6c46 0 95 -2 104 -2c8 0 48 2 92 2c12 0 16 -2 16 -6
c0 -5 -5 -8 -9 -8c-7 0 -21 0 -31 -5c-6 -2 -12 -7 -12 -18s7 -41 17 -79c14 -54 104 -366 115 -401h2l184 475c13 34 19 39 24 39c6 0 13 -11 24 -40z" />
    <glyph glyph-name="x" unicode="x" horiz-adv-x="611" 
d="M108 82l158 244l-140 228c-20 33 -37 57 -67 66c-14 4 -32 6 -37 6s-8 5 -8 8c0 4 4 6 15 6c25 0 96 -2 103 -2c8 0 56 2 86 2c12 0 15 -2 15 -6s-3 -8 -8 -8c-6 0 -17 0 -24 -2c-8 -1 -11 -7 -11 -13c0 -8 4 -19 9 -28c37 -67 70 -128 116 -201c26 37 119 180 127 198
c7 12 9 20 9 30c0 6 -6 11 -15 14c-9 2 -19 2 -24 2s-8 4 -8 8s4 6 15 6c33 0 70 -2 78 -2s44 2 74 2c10 0 14 -2 14 -6c0 -3 -3 -8 -9 -8c-7 0 -20 -1 -30 -4c-25 -8 -41 -30 -66 -67l-141 -206c17 -26 167 -273 186 -296c14 -18 24 -30 50 -37c12 -3 25 -5 30 -5
s7 -3 7 -7s-4 -7 -12 -7c-54 0 -96 0 -144 2c-23 1 -27 3 -27 7c0 3 2 6 5 7c5 1 13 10 5 24c-48 83 -96 165 -149 251l-135 -223c-8 -14 -11 -29 -11 -38c0 -8 6 -12 14 -14c5 -1 12 -2 16 -2c5 0 8 -4 8 -8s-5 -6 -11 -6c-21 0 -79 3 -87 3c-7 0 -51 -3 -80 -3
c-7 0 -8 3 -8 6c0 4 2 8 7 8c7 0 20 2 33 5c26 7 44 23 72 66z" />
    <glyph glyph-name="y" unicode="y" horiz-adv-x="576" 
d="M255 145v73c0 46 -6 63 -19 87c-7 13 -126 202 -156 247c-21 32 -42 51 -58 62c-13 8 -30 12 -37 12c-5 0 -9 4 -9 8s3 6 11 6c17 0 83 -2 87 -2c6 0 42 2 76 2c10 0 12 -2 12 -6c0 -3 -6 -6 -14 -9c-7 -3 -11 -7 -11 -14c0 -12 6 -22 12 -33l160 -265
c18 36 128 218 144 246c11 19 15 33 15 44c0 12 -4 19 -14 22c-8 2 -13 6 -13 10c0 3 5 5 14 5c23 0 54 -2 61 -2c6 0 69 2 86 2c6 0 11 -2 11 -5c0 -4 -4 -9 -11 -9c-10 0 -27 -3 -41 -11c-17 -10 -25 -19 -44 -42c-29 -34 -153 -234 -171 -270c-15 -30 -11 -57 -11 -85
v-73c0 -14 0 -50 3 -85c2 -25 8 -41 34 -45c12 -2 32 -4 40 -4c5 0 7 -4 7 -7c0 -4 -5 -7 -14 -7c-49 0 -106 3 -111 3c-4 0 -60 -3 -86 -3c-10 0 -14 2 -14 7c0 3 2 7 7 7c8 0 18 2 26 4c18 4 24 20 26 45c2 35 2 71 2 85z" />
    <glyph glyph-name="z" unicode="z" horiz-adv-x="609" 
d="M172 37h234c93 0 117 15 137 39c9 11 15 34 18 46c2 8 5 13 10 13s7 -3 7 -19c0 -27 -12 -77 -18 -98c-5 -21 -6 -22 -26 -22c-147 0 -296 4 -450 4c-10 0 -16 1 -16 7c0 4 1 10 12 26c132 191 262 380 383 569h-186c-45 0 -97 1 -125 -14c-31 -16 -47 -47 -50 -67
c-2 -13 -7 -15 -12 -15c-4 0 -5 4 -5 11c0 10 13 87 18 113c1 12 3 16 8 16c8 0 14 -5 37 -6c84 -3 126 -2 154 -2h246c13 0 18 -2 18 -7c0 -4 -1 -10 -5 -15c-128 -196 -256 -386 -389 -579z" />
    <glyph glyph-name="braceleft" unicode="{" horiz-adv-x="360" 
d="M134 349c21 -11 47 -39 58 -79c10 -37 10 -69 10 -150c0 -168 41 -212 75 -226c19 -7 22 -9 22 -13s-3 -5 -18 -5c-19 0 -66 16 -103 67c-26 36 -51 86 -51 228c0 30 7 74 7 107c0 13 -2 24 -7 32c-10 17 -31 20 -59 25c-11 2 -12 3 -12 8c0 6 1 8 12 9c52 3 69 7 69 68
c0 37 -10 83 -10 107c0 101 26 141 64 176c31 28 73 41 94 41c9 0 13 -2 13 -5c0 -4 -4 -5 -16 -9c-24 -7 -80 -40 -80 -125c0 -90 3 -139 -8 -180c-9 -35 -39 -68 -60 -76z" />
    <glyph glyph-name="bar" unicode="|" horiz-adv-x="510" 
d="M282 -250h-54v1000h54v-1000z" />
    <glyph glyph-name="braceright" unicode="}" horiz-adv-x="360" 
d="M226 349c-21 8 -51 41 -60 76c-11 41 -8 90 -8 180c0 85 -57 118 -80 125c-12 4 -16 4 -16 8s4 6 13 6c21 0 63 -13 94 -41c38 -35 64 -75 64 -176c0 -39 -23 -136 1 -159c19 -18 43 -15 58 -16c11 -1 12 -3 12 -9c0 -5 -1 -6 -12 -8c-28 -5 -49 -8 -59 -25
c-16 -26 0 -96 0 -139c0 -142 -25 -192 -51 -228c-37 -51 -84 -67 -103 -67c-15 0 -18 1 -18 4c0 5 3 7 22 14c34 12 75 58 75 226c0 73 -2 107 10 150c11 40 37 68 58 79z" />
    <glyph glyph-name="asciitilde" unicode="~" horiz-adv-x="510" 
d="M110 201l-49 -1c-2 82 40 119 95 119c33 0 58 -10 109 -34c38 -18 67 -33 93 -33c27 -1 40 23 41 66h49c4 -90 -41 -119 -92 -119c-31 0 -59 9 -110 34c-36 18 -65 34 -92 34s-43 -20 -44 -66z" />
    <glyph glyph-name="exclamdown" unicode="&#xa1;" horiz-adv-x="320" 
d="M162 767c35 0 50 -28 50 -51c0 -21 -15 -51 -51 -51c-29 0 -51 19 -51 48c0 30 21 54 52 54zM173 544l16 -266c1 -15 7 -158 15 -189c2 -8 4 -14 4 -19s-2 -9 -5 -14c-14 -24 -46 -54 -74 -68c-8 -4 -11 -5 -15 -5s-6 2 -6 10c0 7 10 58 15 132c1 18 21 415 23 439
c1 14 2 32 12 32s13 -13 15 -52z" />
    <glyph glyph-name="cent" unicode="&#xa2;" horiz-adv-x="571" 
d="M364 597l-45 -434c17 -1 32 -2 49 -2c70 0 116 13 130 77c2 10 5 15 9 15s6 -5 6 -12s-9 -73 -13 -92c-3 -11 -5 -15 -13 -17c-45 -12 -96 -16 -133 -16c-16 0 -28 0 -43 1l-14 -135c-1 -7 -4 -10 -9 -11l-23 -5c-7 -2 -10 0 -9 6l18 152c-119 22 -213 112 -213 257
c0 96 49 161 78 186c53 45 105 63 194 67l11 100c1 5 2 7 10 9l20 4c7 1 11 -1 10 -6l-13 -108c33 0 90 -7 138 -25c7 -4 7 -6 7 -14c0 -23 -4 -78 -6 -92c-1 -9 -4 -12 -8 -12s-5 4 -5 12c-2 17 -5 37 -20 56c-13 15 -53 36 -113 39zM281 174l45 424
c-119 0 -191 -83 -191 -190c0 -141 77 -209 146 -234z" />
    <glyph glyph-name="sterling" unicode="&#xa3;" horiz-adv-x="571" 
d="M251 0h-233c-15 0 -29 1 -29 10c0 10 9 15 20 17c100 21 121 113 135 225l13 105h-75c-12 0 -17 -2 -21 -2s-5 4 -3 9l12 21c3 7 7 8 14 8h79l10 70c12 86 36 189 104 248c55 48 113 56 151 56c32 0 66 -5 87 -12c10 -2 18 -4 27 -5c5 -1 7 -6 7 -12
c0 -49 -3 -102 -5 -114c-1 -7 -3 -12 -8 -12s-8 4 -8 15c0 14 -8 46 -24 67c-18 24 -50 38 -99 38c-78 0 -134 -67 -148 -188l-18 -151h109c28 0 42 5 47 5s8 -3 5 -10l-11 -24c-3 -6 -8 -8 -16 -8h-140l-5 -42c-7 -55 -29 -185 -111 -256l2 -2l312 3c55 1 83 22 93 82
c1 7 4 10 8 10s7 -3 7 -15c0 -11 -10 -86 -17 -121c-4 -17 -4 -20 -61 -20c-37 0 -68 1 -101 3c-33 1 -67 2 -109 2z" />
    <glyph glyph-name="fraction" unicode="&#x2044;" horiz-adv-x="80" 
d="M-227 -14l-20 17c-4 2 -4 7 1 13l542 707c4 5 5 7 11 3l19 -14c4 -3 4 -7 2 -10l-543 -713c-4 -6 -8 -6 -12 -3z" />
    <glyph glyph-name="yen" unicode="&#xa5;" horiz-adv-x="571" 
d="M323 306v-141c0 -36 -1 -76 0 -98c1 -31 12 -47 46 -52c14 -2 36 -3 45 -3c4 0 9 -4 9 -8c0 -5 -5 -7 -16 -7c-53 0 -117 3 -120 3c-5 0 -67 -3 -120 -3c-13 0 -17 2 -17 7c0 4 2 8 7 8c10 0 33 1 46 3c35 5 46 21 47 52c1 22 1 62 1 98v141h-162c-9 0 -9 4 -7 11l7 21
c2 5 5 6 11 6h149c-25 37 -153 253 -184 307c-21 36 -46 63 -62 74c-17 11 -38 13 -44 13c-5 0 -11 2 -11 7s4 8 10 8c18 0 90 -3 95 -3c6 0 42 3 80 3c6 0 13 -2 13 -8c0 -4 -7 -7 -14 -9c-8 -2 -14 -10 -14 -18c0 -10 5 -23 13 -38c16 -28 148 -265 170 -297
c21 35 131 242 151 276c13 22 19 38 19 53c0 11 -4 18 -16 23c-8 3 -16 5 -16 11c0 5 7 7 16 7c25 0 55 -3 62 -3c6 0 75 3 93 3c6 0 13 -2 13 -7s-5 -8 -12 -8c-11 0 -30 -5 -43 -12c-22 -11 -32 -24 -52 -51c-32 -41 -156 -271 -192 -331h162c8 0 11 -4 9 -9l-6 -23
c-2 -5 -7 -6 -14 -6h-152z" />
    <glyph glyph-name="florin" unicode="&#x192;" horiz-adv-x="571" 
d="M200 342h-41c-44 0 -64 -1 -75 -3c-7 -1 -12 3 -9 9l10 20c3 6 8 12 14 12c5 0 22 -3 46 -3h61c13 143 41 243 97 311c36 43 79 79 164 79c41 0 72 -6 100 -18c11 -5 12 -10 12 -15c0 -14 -3 -50 -11 -108c-2 -14 -5 -19 -9 -19c-6 0 -7 5 -7 19c0 26 -6 46 -16 66
c-11 21 -39 41 -82 41c-55 0 -98 -25 -123 -83c-24 -56 -39 -174 -50 -273h116c45 0 63 4 70 4s10 -6 5 -15l-11 -19c-4 -7 -12 -10 -20 -10c-7 0 -55 4 -93 4h-70c-12 -83 -30 -256 -47 -340c-24 -118 -62 -186 -129 -218c-20 -10 -49 -15 -72 -15c-26 0 -37 3 -37 9
s3 10 7 10c50 0 88 6 117 54c23 38 37 97 51 220z" />
    <glyph glyph-name="section" unicode="&#xa7;" horiz-adv-x="596" 
d="M408 93c40 -41 52 -80 52 -124c0 -48 -21 -107 -83 -148c-38 -25 -96 -35 -133 -35c-69 0 -108 6 -144 23c-12 6 -13 9 -13 32c0 42 4 76 5 90c0 9 2 14 7 14s8 -3 8 -10s0 -19 3 -31c14 -62 75 -84 144 -84c81 0 137 47 137 121c0 72 -51 110 -131 168l-32 23
c-97 70 -143 111 -143 192c0 77 61 130 115 152c-43 42 -68 82 -68 128c0 111 101 162 203 162c53 0 74 -5 95 -10c17 -4 24 -4 31 -4s9 -1 9 -6c0 -4 -4 -32 -4 -90c0 -13 -1 -19 -7 -19s-7 4 -8 11c-1 10 -8 33 -13 42c-6 10 -27 42 -119 42c-63 0 -124 -32 -124 -105
c0 -63 55 -98 139 -156l26 -18c100 -69 150 -118 150 -193c0 -81 -44 -134 -102 -167zM383 116c43 24 69 75 69 113c0 66 -51 96 -130 152l-42 30c-20 14 -36 27 -53 41c-46 -14 -86 -60 -86 -106c0 -60 43 -90 129 -148l28 -19c30 -20 63 -42 85 -63z" />
    <glyph glyph-name="currency" unicode="&#xa4;" horiz-adv-x="571" 
d="M487 449l-68 -61c15 -23 28 -58 28 -100c-1 -47 -13 -84 -29 -107l65 -62l-42 -43l-60 68c-26 -24 -65 -37 -98 -37c-35 -1 -75 13 -98 35l-59 -66l-40 43l63 61c-17 23 -32 59 -32 102c0 47 16 82 33 106l-66 61l41 43l60 -66c25 22 61 35 99 35h1c40 0 74 -13 98 -34
l62 65zM380 286c0 59 -35 114 -97 114h-1c-59 0 -97 -51 -97 -116c0 -81 54 -116 97 -116c47 0 98 33 98 118z" />
    <glyph glyph-name="quotesingle" unicode="'" horiz-adv-x="200" 
d="M100 755c25 0 42 0 42 -14c0 -16 -22 -66 -31 -176c-3 -40 -6 -45 -11 -45s-8 5 -11 45c-9 110 -31 160 -31 176c0 14 17 14 42 14z" />
    <glyph glyph-name="quotedblleft" unicode="&#x201c;" horiz-adv-x="325" 
d="M243 659c0 -31 13 -57 20 -65c8 -9 9 -12 9 -17c0 -3 -5 -6 -9 -6c-16 0 -54 12 -70 18c-12 6 -17 11 -17 26c0 71 51 155 86 197c4 6 8 8 13 8c2 0 5 -2 5 -5s-1 -6 -4 -13c-15 -32 -33 -86 -33 -143zM113 659c0 -31 13 -57 20 -65c8 -9 9 -12 9 -17c0 -3 -5 -6 -9 -6
c-16 0 -54 12 -70 18c-12 6 -17 11 -17 26c0 71 51 155 86 197c4 6 8 8 13 8c2 0 5 -2 5 -5s-1 -6 -4 -13c-15 -32 -33 -86 -33 -143z" />
    <glyph glyph-name="guillemotleft" unicode="&#xab;" horiz-adv-x="560" 
d="M481 140l-30 -33c-2 -3 -6 -5 -8 -5s-8 5 -23 22c-23 26 -120 132 -140 152c-13 13 -18 18 -18 24c0 3 5 10 19 22c21 18 169 165 178 174c8 7 13 11 18 11c4 0 9 -4 9 -8c0 -5 -3 -10 -6 -13c-5 -6 -121 -140 -151 -181c15 -18 93 -100 142 -143c11 -10 14 -13 14 -15
s-2 -5 -4 -7zM294 140l-30 -33c-2 -3 -6 -5 -8 -5s-8 5 -23 22c-23 26 -120 132 -140 152c-13 13 -18 18 -18 24c0 3 5 10 19 22c21 18 169 165 178 174c8 7 13 11 18 11c4 0 9 -4 9 -8c0 -5 -3 -10 -6 -13c-5 -6 -121 -140 -151 -181c15 -18 93 -100 142 -143
c11 -10 14 -13 14 -15s-2 -5 -4 -7z" />
    <glyph glyph-name="guilsinglleft" unicode="&#x2039;" horiz-adv-x="375" 
d="M294 140l-30 -33c-2 -3 -6 -5 -8 -5s-8 5 -23 22c-23 26 -120 132 -140 152c-13 13 -18 18 -18 24c0 3 5 10 19 22c21 18 169 165 178 174c8 7 13 11 18 11c4 0 9 -4 9 -8c0 -5 -3 -10 -6 -13c-5 -6 -121 -140 -151 -181c15 -18 93 -100 142 -143c11 -10 14 -13 14 -15
s-2 -5 -4 -7z" />
    <glyph glyph-name="guilsinglright" unicode="&#x203a;" horiz-adv-x="375" 
d="M81 469l30 33c2 3 6 5 8 5s8 -5 23 -22c23 -26 120 -132 140 -152c13 -13 18 -18 18 -24c0 -3 -5 -10 -19 -22c-21 -18 -169 -165 -178 -174c-8 -7 -13 -11 -18 -11c-4 0 -9 4 -9 8c0 5 3 10 6 13c5 6 121 140 151 181c-15 18 -93 100 -142 143c-11 10 -14 13 -14 15
s2 5 4 7z" />
    <glyph glyph-name="fi" unicode="&#xfb01;" horiz-adv-x="924" 
d="M155 244v150c0 132 0 156 -2 183c-2 29 -7 43 -36 47c-7 1 -22 2 -30 2c-3 0 -7 4 -7 7c0 5 4 7 14 7c40 0 95 -2 100 -2c17 0 208 -1 228 0c17 1 32 1 40 4c5 1 9 5 12 5c4 0 6 -4 6 -8c0 -6 -4 -16 -7 -40c-1 -8 -2 -46 -4 -56c-1 -4 -4 -9 -8 -9s-7 4 -7 10
c0 7 -3 21 -8 32s-26 25 -60 25l-144 2c-5 0 -7 -2 -7 -9v-232c0 -5 0 -8 6 -8l120 1c15 0 28 0 40 1c21 2 33 5 41 15c4 5 8 9 11 9c4 0 5 -3 5 -7c0 -5 -6 -19 -8 -47c-2 -17 -3 -51 -3 -57c0 -8 -2 -17 -8 -17c-5 0 -6 4 -6 8c-1 9 -2 21 -6 31c-4 12 -18 23 -45 27
c-22 3 -126 2 -141 2c-5 0 -6 -2 -6 -8v-68c0 -84 0 -151 4 -184c3 -25 8 -41 32 -45c13 -2 32 -4 40 -4c5 0 7 -4 7 -7c0 -4 -4 -7 -14 -7c-49 0 -106 3 -110 3c-5 0 -60 -3 -87 -3c-9 0 -14 2 -14 7c0 3 2 7 7 7c8 0 19 3 27 4c17 3 19 20 23 45c5 35 5 102 5 184z
M770 394v-150c0 -82 0 -149 4 -184c3 -25 6 -41 32 -45c13 -2 32 -4 40 -4c5 0 7 -4 7 -7c0 -4 -4 -7 -14 -7c-49 0 -106 3 -110 3c-5 0 -60 -3 -87 -3c-9 0 -14 2 -14 7c0 3 2 7 7 7c8 0 19 2 27 4c17 4 20 20 23 45c4 35 5 102 5 184v150c0 132 0 156 -2 183
c-2 29 -9 42 -28 46c-10 2 -21 3 -27 3c-4 0 -7 4 -7 7c0 5 4 7 14 7c29 0 84 -2 89 -2c4 0 61 2 88 2c10 0 14 -2 14 -7c0 -3 -4 -7 -7 -7c-6 0 -12 0 -22 -2c-24 -5 -29 -17 -31 -47c-1 -27 -1 -51 -1 -183z" />
    <glyph glyph-name="fl" unicode="&#xfb02;" horiz-adv-x="1070" 
d="M155 244v150c0 132 0 156 -2 183c-2 29 -7 43 -36 47c-7 1 -22 2 -30 2c-3 0 -7 4 -7 7c0 5 4 7 14 7c40 0 95 -2 100 -2c17 0 208 -1 228 0c17 1 32 1 40 4c5 1 9 5 12 5c4 0 6 -4 6 -8c0 -6 -4 -16 -7 -40c-1 -8 -2 -46 -4 -56c-1 -4 -4 -9 -8 -9s-7 4 -7 10
c0 7 -3 21 -8 32s-26 25 -60 25l-144 2c-5 0 -7 -2 -7 -9v-232c0 -5 0 -8 6 -8l120 1c15 0 28 0 40 1c21 2 33 5 41 15c4 5 8 9 11 9c4 0 5 -3 5 -7c0 -5 -6 -19 -8 -47c-2 -17 -3 -51 -3 -57c0 -8 -2 -17 -8 -17c-5 0 -6 4 -6 8c-1 9 -2 21 -6 31c-4 12 -18 23 -45 27
c-22 3 -126 2 -141 2c-5 0 -6 -2 -6 -8v-68c0 -84 0 -151 4 -184c3 -25 8 -41 32 -45c13 -2 32 -4 40 -4c5 0 7 -4 7 -7c0 -4 -4 -7 -14 -7c-49 0 -106 3 -110 3c-5 0 -60 -3 -87 -3c-9 0 -14 2 -14 7c0 3 2 7 7 7c8 0 19 3 27 4c17 3 19 20 23 45c5 35 5 102 5 184z
M770 394v-152c0 -125 2 -176 18 -191c14 -14 48 -20 117 -20c46 0 85 1 106 26c11 13 18 31 21 48c1 6 4 11 9 11c4 0 6 -4 6 -13s-6 -60 -13 -85c-6 -20 -9 -23 -56 -23c-63 0 -112 1 -153 3c-40 1 -70 2 -96 2c-4 0 -19 0 -36 -1c-18 -1 -37 -2 -51 -2c-9 0 -14 2 -14 7
c0 3 2 7 7 7c8 0 19 2 27 4c17 4 19 20 23 45c5 35 5 102 5 184v150c0 132 0 156 -2 183c-2 29 -7 43 -36 47c-7 1 -22 2 -30 2c-3 0 -7 4 -7 7c0 5 4 7 14 7c40 0 95 -2 100 -2c4 0 70 2 97 2c9 0 14 -2 14 -7c0 -3 -4 -6 -7 -6c-6 0 -19 -1 -29 -2c-26 -5 -31 -18 -33 -48
c-1 -27 -1 -51 -1 -183z" />
    <glyph glyph-name="endash" unicode="&#x2013;" horiz-adv-x="500" 
d="M0 282v46h500v-46h-500z" />
    <glyph glyph-name="dagger" unicode="&#x2020;" horiz-adv-x="610" 
d="M267 439c-2 95 -3 212 -8 230c-2 8 -4 14 -4 19s2 9 5 14c14 20 41 46 69 60c8 4 11 5 15 5s6 -2 6 -10c0 -7 -4 -58 -9 -132c0 -5 -2 -83 -5 -186l150 3c45 1 63 7 70 7s9 -5 5 -15l-16 -44c-3 -7 -12 -10 -20 -10c-7 0 -48 10 -84 11l-106 3c-8 -241 -15 -578 -16 -594
c-1 -14 -4 -32 -18 -32s-18 13 -21 52c-2 32 -12 558 -12 574l-51 -1c-44 -1 -81 -6 -153 -12c-7 -1 -10 3 -7 14l13 42c2 6 8 12 14 12c5 0 22 -6 46 -7z" />
    <glyph glyph-name="daggerdbl" unicode="&#x2021;" horiz-adv-x="610" 
d="M435 146l-108 3c-5 -189 -7 -339 -8 -349c-1 -14 -5 -32 -19 -32s-17 13 -18 52c-1 17 -4 174 -7 329l-58 -1c-44 -1 -71 -4 -143 -10c-7 -1 -10 3 -7 14l9 33c2 6 8 12 14 12c5 0 24 -5 48 -5l136 -2c-2 117 -4 226 -4 257l-53 -1c-44 -1 -81 -4 -153 -10
c-7 -1 -11 3 -7 14l11 34c2 6 8 12 14 12c5 0 24 -4 48 -5l140 -3c-2 46 1 182 -4 200c-2 8 -4 14 -4 19s0 9 5 14c14 14 31 30 59 41c8 3 11 5 15 5s6 -2 6 -10c0 -7 -4 -58 -7 -132c0 -5 -3 -83 -5 -137l151 3c45 1 61 5 68 5s9 -5 5 -15l-14 -35c-3 -7 -12 -10 -20 -10
c-7 0 -54 7 -90 8l-101 3l-6 -257l150 3c45 1 58 5 65 5s8 -5 5 -15l-10 -33c-2 -7 -12 -10 -20 -10c-7 0 -47 5 -83 6z" />
    <glyph glyph-name="periodcentered" unicode="&#xb7;" horiz-adv-x="250" 
d="M124 232c-38 0 -54 30 -54 55c0 23 16 55 55 55c31 0 55 -20 55 -52s-22 -58 -56 -58z" />
    <glyph glyph-name="paragraph" unicode="&#xb6;" horiz-adv-x="712" 
d="M384 683c0 26 -4 40 -17 40c-33 0 -80 -23 -104 -61c-29 -45 -35 -110 -35 -143c0 -92 28 -161 75 -192c17 -11 29 -8 29 -19c0 -5 -6 -7 -11 -7c-5 -1 -16 -1 -21 -1c-142 0 -247 85 -247 219c0 70 33 126 68 159c41 39 108 75 229 75c19 0 84 -3 106 -3
c10 0 116 3 161 3c11 0 16 -2 16 -8c0 -4 -4 -6 -8 -6c-9 0 -20 -1 -28 -3c-26 -7 -34 -23 -36 -57c-2 -32 -2 -60 -2 -216v-393c0 -96 -1 -158 2 -200c0 -5 -3 -10 -7 -14c-13 -12 -35 -21 -48 -21c-5 0 -6 2 -6 5c0 5 4 17 5 38c2 22 5 96 5 192v614c0 21 -10 39 -39 39
c-23 0 -35 -10 -37 -37c-2 -39 -1 -67 -1 -223v-389c0 -96 -1 -200 3 -242c1 -5 -2 -9 -6 -13c-13 -12 -35 -21 -50 -21c-4 0 -8 1 -8 6c0 2 3 10 6 38c4 41 6 136 6 232v609z" />
    <glyph glyph-name="bullet" unicode="&#x2022;" horiz-adv-x="420" 
d="M172 395c0 46 -23 62 -35 68c-8 4 -14 5 -14 11s4 8 12 8c17 0 83 -11 133 -22c21 -4 30 -10 30 -17c0 -8 -3 -15 -6 -20c-30 -46 -71 -82 -112 -119c-7 -6 -15 -14 -20 -14c-2 0 -5 2 -5 5c0 4 4 14 6 20c7 24 11 60 11 80z" />
    <glyph glyph-name="quotesinglbase" unicode="&#x201a;" horiz-adv-x="200" 
d="M85 49c0 31 -13 57 -20 65c-8 9 -9 12 -9 17c0 3 5 6 9 6c16 0 54 -12 70 -18c12 -6 17 -11 17 -26c0 -71 -51 -155 -86 -197c-4 -6 -8 -8 -13 -8c-2 0 -5 2 -5 5s1 6 4 13c15 32 33 86 33 143z" />
    <glyph glyph-name="quotedblbase" unicode="&#x201e;" horiz-adv-x="325" 
d="M82 49c0 31 -13 57 -20 65c-8 9 -9 12 -9 17c0 3 5 6 9 6c16 0 54 -12 70 -18c12 -6 17 -11 17 -26c0 -71 -51 -155 -86 -197c-4 -6 -8 -8 -13 -8c-2 0 -5 2 -5 5s1 6 4 13c15 32 33 86 33 143zM212 49c0 31 -13 57 -20 65c-8 9 -9 12 -9 17c0 3 5 6 9 6
c16 0 54 -12 70 -18c12 -6 17 -11 17 -26c0 -71 -51 -155 -86 -197c-4 -6 -8 -8 -13 -8c-2 0 -5 2 -5 5s1 6 4 13c15 32 33 86 33 143z" />
    <glyph glyph-name="quotedblright" unicode="&#x201d;" horiz-adv-x="325" 
d="M82 732c0 31 -13 57 -20 65c-8 9 -9 12 -9 17c0 3 5 6 9 6c16 0 54 -12 70 -18c12 -6 17 -11 17 -26c0 -71 -51 -155 -86 -197c-4 -6 -8 -8 -13 -8c-2 0 -5 2 -5 5s1 6 4 13c15 32 33 86 33 143zM212 732c0 31 -13 57 -20 65c-8 9 -9 12 -9 17c0 3 5 6 9 6
c16 0 54 -12 70 -18c12 -6 17 -11 17 -26c0 -71 -51 -155 -86 -197c-4 -6 -8 -8 -13 -8c-2 0 -5 2 -5 5s1 6 4 13c15 32 33 86 33 143z" />
    <glyph glyph-name="guillemotright" unicode="&#xbb;" horiz-adv-x="560" 
d="M79 469l30 33c2 3 6 5 8 5s8 -5 23 -22c23 -26 120 -132 140 -152c13 -13 18 -18 18 -24c0 -3 -5 -10 -19 -22c-21 -18 -169 -165 -178 -174c-8 -7 -13 -11 -18 -11c-4 0 -9 4 -9 8c0 5 3 10 6 13c5 6 121 140 151 181c-15 18 -93 100 -142 143c-11 10 -14 13 -14 15
s2 5 4 7zM266 469l30 33c2 3 6 5 8 5s8 -5 23 -22c23 -26 120 -132 140 -152c13 -13 18 -18 18 -24c0 -3 -5 -10 -19 -22c-21 -18 -169 -165 -178 -174c-8 -7 -13 -11 -18 -11c-4 0 -9 4 -9 8c0 5 3 10 6 13c5 6 121 140 151 181c-15 18 -93 100 -142 143
c-11 10 -14 13 -14 15s2 5 4 7z" />
    <glyph glyph-name="ellipsis" unicode="&#x2026;" horiz-adv-x="1000" 
d="M166 0c-37 0 -53 29 -53 53c0 23 16 54 53 54c31 0 54 -20 54 -51s-22 -56 -54 -56zM500 0c-37 0 -53 29 -53 53c0 23 16 54 53 54c31 0 54 -20 54 -51s-22 -56 -54 -56zM834 0c-37 0 -53 29 -53 53c0 23 16 54 53 54c31 0 54 -20 54 -51s-22 -56 -54 -56z" />
    <glyph glyph-name="perthousand" unicode="&#x2030;" horiz-adv-x="1216" 
d="M615 0c-110 0 -158 93 -158 167c0 87 48 182 164 182c108 0 158 -93 158 -168c0 -86 -50 -181 -164 -181zM618 27c73 0 102 65 102 141c0 74 -36 154 -103 154c-72 0 -101 -65 -101 -142c0 -74 33 -153 102 -153zM285 -4l-44 -7c-10 -2 -13 4 -10 10
c95 213 291 678 300 698c-60 -3 -208 -16 -224 -15v-2c34 -24 62 -75 62 -136c0 -86 -52 -181 -164 -181c-110 0 -158 93 -158 167c0 88 55 182 170 182c161 0 336 22 361 22c4 0 6 0 6 -3c0 -5 -4 -14 -10 -28l-280 -695c-4 -9 -4 -11 -9 -12zM209 389c73 0 101 66 101 142
c0 74 -36 155 -103 155c-72 0 -101 -66 -101 -143c0 -74 34 -154 103 -154zM1004 0c-110 0 -158 93 -158 167c0 87 49 182 165 182c108 0 157 -93 157 -168c0 -86 -50 -181 -164 -181zM1008 27c73 0 102 65 102 141c0 74 -37 154 -104 154c-72 0 -101 -65 -101 -142
c0 -74 34 -153 103 -153z" />
    <glyph glyph-name="questiondown" unicode="&#xbf;" horiz-adv-x="488" 
d="M265 17c49 0 82 19 98 39c24 29 32 59 35 93c1 10 3 17 8 17s7 -3 8 -10c3 -13 4 -78 4 -117c0 -6 -1 -10 -11 -16c-30 -18 -89 -40 -166 -40c-133 0 -181 86 -181 156c0 116 76 168 172 287c37 47 41 63 41 80c0 15 -5 32 -19 51c-7 9 -9 14 -9 17c0 4 7 9 11 9
c9 0 30 -20 42 -35c20 -25 29 -41 29 -59c0 -14 -7 -31 -22 -50c-23 -30 -47 -55 -69 -83c-70 -89 -88 -141 -88 -212c0 -47 26 -127 117 -127zM263 767c35 0 50 -28 50 -51c0 -21 -15 -51 -51 -51c-29 0 -51 19 -51 48c0 30 21 54 52 54z" />
    <glyph glyph-name="grave" unicode="`" horiz-adv-x="911" 
d="M506 830c-18 0 -165 53 -181 59c-21 8 -29 12 -29 17s4 6 11 8c21 6 48 14 60 19c8 3 12 5 16 5c5 0 6 -7 15 -16c8 -8 57 -47 98 -73c10 -7 19 -10 19 -14c0 -3 -4 -5 -9 -5z" />
    <glyph glyph-name="acute" unicode="&#xb4;" horiz-adv-x="911" 
d="M583 933c7 -10 14 -24 25 -44c5 -9 0 -12 -4 -12c-3 0 -13 2 -30 0c-49 -5 -119 -28 -152 -42c-7 -3 -13 -5 -15 -5s-5 2 -5 6c0 3 2 5 7 8c36 25 129 81 136 85c17 10 23 13 28 13c3 0 5 -2 10 -9z" />
    <glyph glyph-name="circumflex" unicode="&#x2c6;" horiz-adv-x="911" 
d="M582 845l-21 -22c-4 -4 -6 -6 -9 -6s-5 1 -8 5c-20 22 -72 62 -84 69c-4 2 -7 4 -10 4c-4 0 -8 -1 -16 -5c-23 -12 -61 -43 -85 -63c-8 -7 -15 -10 -18 -10c-4 0 -7 4 -7 8s3 7 6 11c10 10 101 94 112 104c8 7 13 10 16 10c4 0 8 -4 16 -10s88 -66 101 -76
c9 -6 12 -8 12 -10c0 -3 -3 -6 -5 -9z" />
    <glyph glyph-name="tilde" unicode="&#x2dc;" horiz-adv-x="911" 
d="M526 830c-33 0 -65 19 -79 26c-18 8 -37 23 -68 23c-35 0 -54 -28 -61 -36c-5 -6 -10 -9 -14 -9s-6 3 -6 6c0 5 3 9 7 15c14 22 54 71 86 71c24 0 53 -16 84 -31c14 -7 42 -17 58 -17c37 0 58 25 61 29c4 6 9 11 12 11c4 0 7 -3 7 -6c0 -4 -1 -7 -4 -13
c-8 -16 -52 -69 -83 -69z" />
    <glyph glyph-name="macron" unicode="&#xaf;" horiz-adv-x="911" 
d="M343 900h235c8 0 10 -5 8 -10l-8 -22c-1 -4 -4 -6 -9 -6h-235c-7 0 -11 1 -10 7l8 25c1 5 5 6 11 6z" />
    <glyph glyph-name="breve" unicode="&#x2d8;" horiz-adv-x="911" 
d="M316 904l32 24c3 2 6 5 9 5c6 0 7 -9 13 -16c34 -44 81 -47 94 -47c41 0 69 14 88 29c29 21 34 32 41 32c5 0 8 -3 8 -8c0 -11 -39 -50 -62 -64c-31 -19 -58 -29 -101 -29c-31 0 -66 10 -93 29c-15 11 -36 29 -36 36c0 5 4 7 7 9z" />
    <glyph glyph-name="dotaccent" unicode="&#x2d9;" horiz-adv-x="911" 
d="M455 830c-36 0 -51 28 -51 51c0 22 15 52 51 52c29 0 52 -19 52 -49s-21 -54 -52 -54z" />
    <glyph glyph-name="dieresis" unicode="&#xa8;" horiz-adv-x="911" 
d="M555 830c-30 0 -42 24 -42 43c0 18 12 43 43 43c24 0 43 -15 43 -40c0 -26 -17 -46 -44 -46zM354 830c-30 0 -42 24 -42 43c0 18 12 43 43 43c24 0 43 -15 43 -40c0 -26 -17 -46 -44 -46z" />
    <glyph glyph-name="ring" unicode="&#x2da;" horiz-adv-x="911" 
d="M434 820c-50 0 -78 25 -78 59c0 45 49 86 118 86c51 0 82 -23 82 -57c1 -55 -64 -88 -122 -88zM450 844c33 0 59 23 59 51c0 24 -16 46 -52 46c-23 0 -57 -15 -57 -49c0 -30 26 -48 50 -48z" />
    <glyph glyph-name="cedilla" unicode="&#xb8;" horiz-adv-x="911" 
d="M472 0h40c-10 -6 -66 -58 -75 -68c62 -6 100 -30 100 -71c0 -39 -37 -68 -71 -82c-27 -12 -59 -18 -78 -18c-7 0 -13 3 -13 8c0 9 9 10 20 11c35 4 74 25 74 61c0 29 -13 56 -72 73c-11 3 -15 5 -15 9c0 3 4 7 13 14z" />
    <glyph glyph-name="hungarumlaut" unicode="&#x2dd;" horiz-adv-x="911" 
d="M393 943c10 13 13 20 17 20s8 -1 13 -3c11 -5 23 -13 37 -22c7 -4 6 -8 3 -9c-4 -2 -16 -5 -30 -13c-30 -19 -74 -50 -98 -75c-7 -8 -10 -11 -14 -11c-3 0 -5 4 -3 9c3 9 66 93 75 104zM523 945c11 12 15 18 19 18s8 -1 14 -4c10 -6 20 -13 35 -25c5 -5 4 -9 1 -10
s-17 -2 -31 -10c-34 -18 -82 -54 -106 -75c-7 -8 -11 -9 -14 -9s-5 3 -3 8c3 9 76 97 85 107z" />
    <glyph glyph-name="ogonek" unicode="&#x2db;" horiz-adv-x="911" 
d="M462 0h29c-28 -26 -58 -73 -58 -129c0 -32 23 -50 51 -50c31 0 62 36 68 36s8 -3 8 -6c0 -7 -3 -8 -8 -14c-10 -11 -61 -62 -118 -62c-53 0 -79 31 -79 70c0 76 94 147 107 155z" />
    <glyph glyph-name="caron" unicode="&#x2c7;" horiz-adv-x="911" 
d="M329 920l21 22c4 4 6 6 9 6s5 -1 8 -5c20 -22 71 -63 84 -69c4 -2 7 -4 10 -4c4 0 8 1 16 5c23 12 61 43 85 63c8 7 15 10 18 10c4 0 7 -4 7 -8s-3 -7 -6 -11c-10 -10 -101 -94 -112 -104c-8 -7 -13 -10 -17 -10c-3 0 -7 3 -15 10c-8 6 -88 66 -101 76c-9 6 -12 8 -12 10
c0 3 3 6 5 9z" />
    <glyph glyph-name="emdash" unicode="&#x2014;" horiz-adv-x="1000" 
d="M1000 282h-1000v46h1000v-46z" />
    <glyph glyph-name="AE" unicode="&#xc6;" horiz-adv-x="912" 
d="M473 341h-176c-8 0 -13 0 -18 -7c-11 -15 -97 -156 -114 -185c-34 -56 -43 -83 -43 -101c0 -14 8 -24 20 -29c13 -5 33 -8 44 -8c7 0 12 -2 12 -7c0 -4 -8 -7 -17 -7c-56 0 -115 3 -125 3c-8 0 -65 -3 -113 -3c-10 0 -13 3 -13 8c0 4 4 6 11 6s26 2 42 10
c44 22 67 54 105 107c32 44 184 282 367 569c18 28 20 35 22 42c2 8 6 14 13 14c4 0 9 -1 15 -1c5 -1 12 -2 17 -2c7 0 206 0 229 1c19 1 35 3 43 5c5 1 9 5 14 5c3 0 4 -4 4 -9c0 -7 -5 -19 -8 -47c-1 -10 -3 -54 -5 -66c-1 -5 -3 -11 -7 -11c-6 0 -8 5 -8 13
c0 7 -1 24 -6 36c-7 16 -17 28 -71 34c-17 2 -126 3 -137 3c-4 0 -6 -3 -6 -10v-317c0 -7 1 -10 6 -10c13 0 136 0 159 2c24 2 38 4 47 14c7 8 11 13 15 13c3 0 5 -2 5 -8s-5 -23 -8 -56c-2 -20 -4 -50 -4 -57c0 -5 0 -16 -7 -16c-5 0 -7 4 -8 11c0 5 0 13 -3 24
c-4 14 -19 31 -59 35c-20 2 -119 2 -136 2c-6 0 -7 -2 -7 -9v-45c0 -34 -1 -150 0 -172c3 -68 18 -81 116 -81c26 0 70 0 96 11s38 30 45 71c2 11 4 15 9 15c6 0 6 -8 6 -15c0 -8 -8 -76 -13 -96c-7 -26 -15 -26 -54 -26c-75 0 -130 2 -169 3c-39 2 -63 3 -78 3
c-5 0 -21 -1 -39 -1c-19 -1 -40 -2 -55 -2c-11 0 -16 2 -16 8c0 3 2 6 8 6c9 0 19 2 28 4c20 4 25 26 29 55c5 42 5 121 5 217v46c0 6 -3 8 -9 8zM482 385v270c0 6 -5 6 -9 0c-18 -27 -156 -253 -164 -269c-4 -7 -2 -9 4 -9h160c7 0 9 3 9 8z" />
    <glyph glyph-name="ordfeminine" unicode="&#xaa;" horiz-adv-x="400" 
d="M245 522h-120c-3 0 -4 -2 -5 -5l-22 -60c-3 -9 -6 -20 -6 -26c0 -9 8 -14 14 -14h5c4 0 6 -1 6 -4c0 -4 -4 -5 -9 -5c-13 0 -36 2 -45 2c-10 0 -37 -2 -63 -2c-7 0 -10 1 -10 5c0 3 2 4 5 4c4 0 11 0 16 1c23 2 35 18 45 42l127 295c4 9 8 12 13 12c4 0 7 -2 14 -17
c8 -17 92 -211 129 -281c20 -37 31 -47 43 -50c8 -2 16 -2 22 -2c3 0 5 -1 5 -4c0 -4 -5 -5 -11 -5c-8 0 -48 0 -98 2c-11 0 -17 1 -17 3c0 3 2 4 4 5c3 1 6 5 4 10l-40 90c-2 3 -3 4 -6 4zM137 552h94c3 0 4 2 3 4l-46 112c-3 7 -7 7 -10 0l-43 -112c-1 -2 0 -4 2 -4z" />
    <glyph glyph-name="Lslash" unicode="&#x141;" horiz-adv-x="592" 
d="M262 381v-96c0 -135 3 -210 22 -229c16 -16 42 -23 120 -23c53 0 97 1 121 30c13 16 23 41 26 60c1 8 3 13 9 13c5 0 6 -4 6 -15s-7 -71 -15 -100c-7 -23 -10 -27 -63 -27c-72 0 -124 2 -166 3c-42 2 -73 3 -102 3c-4 0 -21 -1 -41 -1c-20 -1 -42 -2 -57 -2
c-11 0 -16 2 -16 8c0 3 2 6 8 6c9 0 21 2 30 4c20 4 25 26 29 55c5 42 5 121 5 217v56l-89 -46c-3 -1 -6 -2 -9 3l-10 22c-1 3 -1 7 2 8l106 55v78c0 156 0 184 -2 216c-2 34 -10 50 -43 57c-8 2 -25 3 -34 3c-4 0 -8 2 -8 6c0 6 5 8 16 8c45 0 108 -3 113 -3s78 3 108 3
c11 0 16 -2 16 -8c0 -4 -4 -6 -8 -6c-7 0 -21 -1 -33 -3c-29 -5 -37 -22 -39 -57c-2 -32 -2 -60 -2 -216v-39l149 72c4 2 7 0 8 -3l11 -23c2 -4 0 -7 -5 -9z" />
    <glyph glyph-name="Oslash" unicode="&#xd8;" horiz-adv-x="915" 
d="M202 66l-87 -93c-3 -4 -6 -4 -10 0l-20 19c-4 4 -5 7 -2 10l87 94c-73 76 -106 183 -106 280c0 162 118 391 394 391c109 0 191 -29 258 -82l82 88c4 4 8 3 14 -2l20 -16c5 -5 4 -9 0 -13l-81 -87c63 -64 100 -153 100 -263c0 -224 -158 -409 -399 -409
c-106 0 -189 32 -250 83zM695 595l-441 -473c58 -65 136 -101 225 -101c90 0 276 52 276 343c0 95 -23 173 -60 231zM227 157l440 475c-57 67 -136 101 -217 101c-166 0 -291 -110 -291 -329c0 -99 25 -183 68 -247z" />
    <glyph glyph-name="OE" unicode="&#x152;" horiz-adv-x="1187" 
d="M839 704v-276c0 -7 1 -10 6 -10c13 0 136 0 159 2c24 2 38 4 47 14c7 8 11 13 15 13c3 0 5 -2 5 -8s-5 -23 -8 -56c-2 -20 -4 -50 -4 -57c0 -5 0 -16 -7 -16c-5 0 -7 4 -8 11c0 5 0 13 -3 24c-4 14 -19 31 -59 35c-20 2 -119 2 -136 2c-6 0 -7 -2 -7 -9v-45
c0 -75 -1 -191 0 -213c3 -68 18 -81 116 -81c26 0 70 0 96 11s38 30 45 71c2 11 4 15 9 15c6 0 6 -8 6 -15c0 -8 -8 -76 -13 -96c-7 -26 -15 -26 -54 -26c-75 0 -130 2 -169 3c-39 2 -63 3 -78 3c-8 0 -14 -1 -20 -1c-5 -1 -9 -2 -14 -2c-6 0 -10 3 -10 7c0 8 3 16 3 30
l2 88h-3c-27 -30 -109 -139 -303 -139c-273 0 -388 211 -388 392c0 166 120 391 400 392c159 0 247 -73 288 -125h4v65c0 16 -2 30 -2 37c0 5 4 9 10 9c3 0 6 -1 11 -1c6 -1 12 -2 20 -2c9 0 208 0 231 1c19 1 35 3 43 5c5 1 9 5 14 5c3 0 4 -4 4 -9c0 -7 -5 -19 -8 -45
c-1 -10 -3 -54 -5 -66c-1 -5 -3 -11 -7 -11c-6 0 -8 5 -8 13c0 7 -1 24 -6 36c-7 16 -17 28 -71 34c-17 2 -126 3 -137 3c-4 0 -6 -3 -6 -12zM478 21c90 0 277 52 277 343c0 240 -147 369 -305 369c-166 0 -291 -110 -291 -329c0 -233 140 -383 319 -383z" />
    <glyph glyph-name="ordmasculine" unicode="&#xba;" horiz-adv-x="437" 
d="M216 405c-137 0 -196 91 -196 181c0 81 64 181 199 181c116 0 199 -65 199 -173c0 -104 -79 -189 -202 -189zM230 432c36 0 117 22 117 149c0 103 -71 160 -137 160c-57 0 -119 -46 -119 -144c0 -95 65 -165 139 -165z" />
    <glyph glyph-name="ae" unicode="&#xe6;" horiz-adv-x="815" 
d="M419 286h-156c-7 0 -11 0 -15 -6c-10 -13 -84 -129 -99 -153c-30 -48 -39 -71 -39 -86c0 -12 6 -19 17 -23s28 -7 38 -7c6 0 10 -3 10 -8c0 -3 -7 -6 -15 -6c-49 0 -102 3 -111 3c-7 0 -57 -3 -99 -3c-9 0 -12 3 -12 7s4 5 10 5s23 2 37 9c39 19 58 47 92 91
c29 37 162 240 323 483c16 24 18 30 20 36c2 7 5 12 11 12s19 -2 28 -2h212c17 0 31 3 38 5c4 0 8 4 12 4c3 0 4 -4 4 -8c0 -6 -5 -16 -7 -40c-1 -8 -3 -46 -5 -56c-1 -4 -3 -9 -6 -9c-5 0 -9 4 -9 11c0 6 -1 20 -5 30c-7 14 -13 20 -61 26c-15 2 -115 3 -124 3
c-4 0 -6 -3 -6 -9v-265c0 -6 1 -9 6 -9c11 0 123 0 144 2s34 2 41 11c5 7 8 11 13 11c3 0 4 -2 4 -7s-5 -19 -7 -47c-2 -17 -3 -43 -3 -49c0 -4 0 -13 -6 -13c-5 0 -9 5 -9 13c0 3 0 7 -3 16c-3 12 -15 24 -50 27c-17 2 -109 2 -124 2c-5 0 -6 -2 -6 -8v-35
c0 -29 -1 -131 0 -149c3 -58 20 -63 106 -63c23 0 62 0 85 9c23 10 31 23 37 58c2 9 6 12 10 12c6 0 6 -6 6 -12c0 -7 -7 -65 -12 -82c-6 -22 -13 -22 -47 -22c-66 0 -117 1 -154 3c-37 1 -61 2 -74 2c-4 0 -18 -1 -34 -1c-16 -1 -35 -2 -48 -2c-10 0 -14 2 -14 7
c0 3 1 7 7 7c8 0 19 3 27 4c18 3 23 20 26 45c4 35 4 102 4 184v35c0 5 -2 7 -8 7zM427 327v230c0 5 -4 5 -8 0c-16 -23 -136 -215 -144 -229c-4 -6 -2 -8 3 -8h141c6 0 8 3 8 7z" />
    <glyph glyph-name="dotlessi" unicode="&#x131;" horiz-adv-x="389" 
d="M235 394v-150c0 -82 0 -149 4 -184c3 -25 6 -41 32 -45c13 -2 32 -4 40 -4c5 0 7 -4 7 -7c0 -4 -4 -7 -14 -7c-49 0 -106 3 -110 3c-5 0 -60 -3 -87 -3c-9 0 -14 2 -14 7c0 3 2 7 7 7c8 0 19 2 27 4c17 4 20 20 23 45c4 35 5 102 5 184v150c0 132 0 156 -2 183
c-2 29 -9 42 -28 46c-10 2 -21 3 -27 3c-4 0 -7 4 -7 7c0 5 4 7 14 7c29 0 84 -2 89 -2c4 0 61 2 88 2c10 0 14 -2 14 -7c0 -3 -4 -7 -7 -7c-6 0 -12 0 -22 -2c-24 -5 -29 -17 -31 -47c-1 -27 -1 -51 -1 -183z" />
    <glyph glyph-name="lslash" unicode="&#x142;" 
d="M235 322v-80c0 -114 2 -175 19 -191c14 -14 46 -20 115 -20c46 0 83 -2 104 23c11 13 20 34 23 51c1 6 3 11 8 11c4 0 7 -4 7 -13s-6 -60 -13 -85c-6 -20 -9 -23 -56 -23c-63 0 -112 1 -151 3c-39 1 -69 2 -95 2c-4 0 -19 0 -38 -1c-18 0 -37 -2 -51 -2c-9 0 -14 2 -14 7
c0 3 2 6 7 6c8 0 19 2 27 4c17 4 19 21 23 46c5 35 5 102 5 184v46l-75 -40c-2 0 -5 -1 -8 3l-10 24c-1 2 -1 6 1 7l92 45v65c0 132 0 156 -2 183c-2 29 -7 43 -36 47c-7 1 -22 2 -30 2c-3 0 -7 4 -7 7c0 5 4 7 14 7c40 0 97 -2 102 -2c4 0 68 2 95 2c9 0 14 -2 14 -7
c0 -3 -4 -7 -7 -7c-6 0 -19 -1 -29 -2c-26 -5 -31 -17 -33 -47c-1 -27 -1 -51 -1 -183v-32l128 63c3 1 6 0 7 -3l11 -25c2 -4 0 -6 -4 -8z" />
    <glyph glyph-name="oslash" unicode="&#xf8;" horiz-adv-x="808" 
d="M179 56l-76 -80c-2 -3 -5 -3 -9 0l-20 17c-4 4 -5 6 -2 9l77 79c-65 64 -94 156 -94 239c0 137 105 332 348 332c96 0 169 -25 228 -70l73 78c3 4 7 4 13 -2l17 -17c5 -5 4 -7 0 -11l-71 -73c55 -55 89 -130 89 -224c0 -190 -140 -347 -352 -347c-94 0 -168 27 -221 70z
M611 505l-384 -400c51 -56 117 -84 196 -84c81 0 238 44 238 288c0 81 -18 146 -50 196zM203 134l383 402c-50 57 -118 84 -189 84c-146 0 -252 -93 -252 -277c0 -84 20 -154 58 -209z" />
    <glyph glyph-name="oe" unicode="&#x153;" horiz-adv-x="1057" 
d="M744 595v-230c0 -6 1 -9 6 -9c11 0 124 0 145 2s33 2 41 11c6 7 10 11 13 11s4 -2 4 -7s-5 -19 -7 -47c-2 -17 -3 -43 -3 -49c0 -4 -1 -13 -7 -13c-5 0 -8 3 -8 9c0 4 0 11 -3 20c-3 12 -15 25 -50 28c-17 2 -110 2 -125 2c-5 0 -6 -2 -6 -8v-36c0 -64 -1 -165 0 -183
c3 -58 21 -64 107 -64c23 0 62 -2 84 9c20 10 32 23 38 58c2 9 5 12 9 12c6 0 7 -6 7 -12c0 -7 -7 -65 -12 -82c-6 -22 -13 -22 -47 -22c-66 0 -124 2 -158 3s-57 2 -71 2s-18 -3 -26 -3c-5 0 -8 3 -8 6c0 7 2 14 2 26l2 80h-3c-27 -31 -101 -123 -271 -123
c-240 0 -342 179 -342 333c0 141 106 332 352 333c141 0 219 -62 259 -111h3v60c0 14 -1 25 -1 31c0 5 3 8 8 8s10 -2 24 -2h214c17 0 31 4 38 5c4 1 8 4 12 4c3 0 4 -4 4 -8c0 -6 -5 -16 -7 -38c-1 -9 -3 -47 -5 -57c-1 -4 -4 -9 -7 -9c-5 0 -8 4 -8 11c0 6 -1 20 -5 30
c-7 14 -19 21 -61 27c-15 2 -116 3 -125 3c-4 0 -6 -3 -6 -11zM422 21c79 0 247 46 247 288c0 198 -133 311 -272 311c-146 0 -252 -93 -252 -277c0 -193 119 -322 277 -322z" />
    <glyph glyph-name="germandbls" unicode="&#xdf;" horiz-adv-x="1048" 
d="M209 -14c-41 0 -92 6 -128 23c-12 6 -13 9 -13 32c0 42 4 76 5 90c0 9 2 14 7 14s8 -3 8 -10s0 -19 3 -31c14 -62 80 -84 139 -84c87 0 132 49 132 113c0 61 -33 90 -111 148l-40 30c-95 71 -126 123 -126 182c0 100 79 160 195 160c35 0 70 -5 91 -10c17 -4 24 -4 31 -4
s9 -1 9 -6c0 -4 -4 -32 -4 -90c0 -13 -1 -19 -7 -19s-7 4 -8 11c-1 10 -8 33 -13 42c-6 10 -35 42 -114 42c-64 0 -117 -32 -117 -92c0 -54 27 -85 114 -144l25 -17c107 -73 144 -132 144 -205c0 -50 -19 -104 -82 -145c-37 -24 -92 -30 -140 -30zM733 -14
c-41 0 -92 6 -128 23c-12 6 -13 9 -13 32c0 42 4 76 5 90c0 9 2 14 7 14s8 -3 8 -10s0 -19 3 -31c14 -62 80 -84 139 -84c87 0 132 49 132 113c0 61 -33 90 -111 148l-40 30c-95 71 -126 123 -126 182c0 100 79 160 195 160c35 0 70 -5 91 -10c17 -4 24 -4 31 -4s9 -1 9 -6
c0 -4 -4 -32 -4 -90c0 -13 -1 -19 -7 -19s-7 4 -8 11c-1 10 -8 33 -13 42c-6 10 -35 42 -114 42c-64 0 -117 -32 -117 -92c0 -54 27 -85 114 -144l25 -17c107 -73 144 -132 144 -205c0 -50 -19 -104 -82 -145c-37 -24 -92 -30 -140 -30z" />
    <glyph glyph-name="onesuperior" unicode="&#xb9;" horiz-adv-x="330" 
d="M200 595v-110c0 -54 0 -105 3 -131c2 -17 6 -27 29 -32c12 -3 39 -5 46 -5c5 0 9 -2 9 -6c0 -5 -3 -8 -12 -8c-54 0 -101 2 -105 2s-66 -2 -115 -2c-8 0 -12 2 -12 7c0 4 3 7 8 7c8 0 43 2 57 5c24 5 28 15 30 32c3 26 3 77 3 131v110c0 32 0 66 -1 76c-1 9 -1 16 -12 16
c-12 0 -67 -23 -83 -30c-2 -1 -6 -3 -9 -3s-6 3 -6 6s1 5 3 7c4 4 140 86 146 91c5 4 13 9 18 9s6 -6 6 -13c0 -5 -3 -61 -3 -159z" />
    <glyph glyph-name="logicalnot" unicode="&#xac;" horiz-adv-x="510" 
d="M465 159h-52v161h-368v51h420v-212z" />
    <glyph glyph-name="mu" unicode="&#xb5;" horiz-adv-x="576" 
d="M70 150v300h75v-225c0 -125 50 -175 135 -175c60 0 130 25 130 150v250h75v-359c0 -40 13 -56 32 -56c16 0 26 13 34 33l15 -7c-8 -46 -36 -76 -76 -76s-70 20 -75 115c-30 -65 -75 -115 -165 -115c-50 0 -90 15 -115 55c5 -90 15 -190 25 -240l-90 -50l-12 5
c7 145 12 245 12 395z" />
    <glyph glyph-name="trademark" unicode="&#x2122;" horiz-adv-x="281" 
d="M27 756h65c6 0 9 1 12 1s5 1 6 1s0 -2 0 -6v-18s-2 -5 -3 -5s-1 1 -2 4l-1 4c-1 5 -2 8 -18 8h-20v-68v-34c0 -7 3 -9 8 -10l5 -1c4 0 5 -1 5 -2s-1 -2 -5 -2c-7 0 -21 1 -23 1s-16 -1 -24 -1c-4 0 -4 1 -4 2s1 2 4 2h5c8 1 9 7 9 11c0 6 1 16 1 34v68h-24
c-12 0 -17 -4 -18 -10c-1 -4 -1 -4 -3 -4c-1 0 -2 1 -2 4c0 5 4 20 4 21c0 2 1 3 1 3c2 0 3 -2 8 -2s12 -1 14 -1zM141 717l-6 -64c0 -4 -1 -7 -1 -14c0 -3 3 -7 6 -7c6 0 7 -1 7 -2s0 -2 -3 -2c-6 0 -17 1 -20 1c-2 0 -10 -1 -17 -1c-2 0 -3 1 -3 2c0 2 1 2 4 2h3
c5 0 9 3 10 14l14 107c0 3 3 7 5 7s4 -2 5 -5l47 -98l47 99c1 3 3 4 5 4s3 -4 3 -7l13 -103c2 -15 6 -18 15 -18h2c3 0 4 -1 4 -2s-1 -2 -3 -2c-6 0 -28 1 -32 2c-2 0 -4 1 -4 4l-9 82h1l-39 -78c-3 -6 -5 -10 -7 -10c-3 0 -5 5 -7 10l-39 79h-1z" />
    <glyph glyph-name="Eth" unicode="&#xd0;" horiz-adv-x="917" 
d="M178 397v66c0 156 0 184 -2 216c-2 34 -10 50 -43 57c-8 2 -25 3 -34 3c-4 0 -8 2 -8 6c0 6 5 8 16 8c45 0 108 -3 113 -3c12 0 75 3 135 3c99 0 282 9 401 -114c50 -52 97 -135 97 -254c0 -126 -52 -223 -108 -282c-43 -45 -133 -115 -303 -115c-43 0 -96 3 -139 6
c-44 3 -78 6 -83 6c-2 0 -19 0 -40 -1c-20 0 -43 -2 -58 -2c-11 0 -16 2 -16 8c0 3 2 6 8 6c9 0 21 2 30 4c20 4 25 26 29 55c5 42 5 121 5 217v74h-88c-8 0 -8 4 -7 11l3 16c2 7 5 9 13 9h79zM262 360v-53c0 -85 1 -153 2 -169c1 -25 3 -65 11 -76c13 -19 52 -40 170 -40
c93 0 179 34 238 93c52 51 80 147 80 239c0 127 -55 209 -96 252c-94 99 -207 113 -328 113c-23 0 -56 -3 -64 -7c-9 -4 -12 -9 -12 -20l-1 -294h205c7 0 8 -4 7 -11l-4 -19c-1 -7 -7 -8 -13 -8h-195z" />
    <glyph glyph-name="onehalf" unicode="&#xbd;" horiz-adv-x="851" 
d="M190 565v-104c0 -51 0 -100 3 -125c2 -16 5 -25 27 -30c11 -3 37 -5 44 -5c5 0 9 -2 9 -6c0 -5 -3 -7 -12 -7c-51 0 -96 2 -100 2s-62 -2 -109 -2c-8 0 -11 1 -11 6c0 4 2 7 7 7c8 0 42 2 55 5c23 5 26 14 28 30c3 25 3 74 3 125v104c0 30 0 63 -1 72s-1 16 -11 16
c-11 0 -64 -22 -79 -29c-2 -1 -6 -3 -9 -3s-6 3 -6 6s1 5 3 7c4 4 133 81 139 86c5 4 12 9 17 9s6 -6 6 -13c0 -5 -3 -58 -3 -151zM128 -14l-20 17c-4 2 -3 6 2 13l540 705c4 5 7 10 13 5l18 -14c4 -3 4 -7 2 -10l-542 -713c-4 -6 -9 -6 -13 -3zM743 0h-240
c-7 0 -11 3 -11 8c0 6 7 11 11 15c97 78 216 171 216 284c0 83 -55 107 -92 107c-28 0 -48 -5 -67 -25c-11 -12 -20 -29 -20 -53c0 -8 -4 -10 -8 -10c-3 0 -5 4 -6 10c-1 5 -4 50 -4 66c0 9 1 10 7 13c28 13 64 24 109 24c95 0 144 -55 144 -113c0 -113 -118 -210 -211 -283
c1 -1 -1 -4 3 -4h31c10 0 99 3 109 4c47 4 64 18 73 48c3 8 4 10 8 10s5 -4 5 -9c0 -10 -12 -57 -22 -76c-7 -12 -20 -16 -35 -16z" />
    <glyph glyph-name="plusminus" unicode="&#xb1;" horiz-adv-x="510" 
d="M230 524h51v-187h187v-51h-186v-189h-52v189h-188v51h188v187zM468 50v-50h-426v50h426z" />
    <glyph glyph-name="Thorn" unicode="&#xde;" horiz-adv-x="647" 
d="M178 287v176c0 156 0 184 -2 216c-2 34 -10 50 -43 57c-8 2 -25 3 -34 3c-4 0 -8 2 -8 6c0 6 5 8 16 8c45 0 105 -3 113 -3c6 0 69 3 118 3c11 0 16 -2 16 -7c0 -4 -4 -7 -8 -7c-9 0 -25 -2 -39 -4c-32 -6 -44 -24 -45 -53c-1 -42 -2 -74 -2 -94c29 2 48 4 87 4
c125 0 169 -42 186 -57c23 -20 49 -66 49 -118c0 -142 -104 -238 -246 -238c-5 0 -16 0 -21 1c-5 0 -11 2 -11 7c0 8 6 9 27 9c97 0 173 71 173 163c0 33 -3 100 -56 154s-114 50 -137 50c-17 0 -34 -2 -43 -6c-6 -2 -8 -9 -8 -19v-251c0 -96 0 -175 5 -217
c3 -29 9 -51 39 -55c14 -2 36 -4 45 -4c6 0 8 -3 8 -6c0 -5 -5 -8 -16 -8c-55 0 -118 3 -123 3c-3 0 -66 -3 -96 -3c-11 0 -16 2 -16 8c0 3 2 6 8 6c9 0 21 2 30 4c20 4 25 26 29 55c5 42 5 121 5 217z" />
    <glyph glyph-name="onequarter" unicode="&#xbc;" horiz-adv-x="793" 
d="M660 160h49c17 0 25 6 28 6s6 -3 6 -6s-3 -18 -6 -28c-2 -6 -5 -8 -12 -8h-65c0 -14 -1 -53 1 -79c2 -17 7 -29 27 -31c9 -1 20 -2 27 -2c3 0 6 -3 6 -6s-2 -7 -9 -7c-34 0 -81 2 -86 2c-4 0 -41 -2 -75 -2c-7 0 -8 3 -8 6s4 7 8 7c5 0 19 1 28 2c21 2 26 14 27 31
c1 26 1 65 1 79h-209c-8 0 -13 3 -13 8c0 7 6 13 9 16c4 4 224 256 244 281c6 7 11 11 16 11c6 0 6 -4 6 -10v-270zM607 160v190h-1c-12 -12 -147 -171 -164 -190h165zM190 565v-104c0 -51 0 -100 3 -125c2 -16 5 -25 27 -30c11 -3 37 -5 44 -5c5 0 9 -2 9 -6
c0 -5 -3 -7 -12 -7c-51 0 -96 2 -100 2s-62 -2 -109 -2c-8 0 -11 1 -11 6c0 4 2 7 7 7c8 0 42 2 55 5c23 5 26 14 28 30c3 25 3 74 3 125v104c0 30 0 63 -1 72s-1 16 -11 16c-11 0 -64 -22 -79 -29c-2 -1 -6 -3 -9 -3s-6 3 -6 6s1 5 3 7c4 4 133 81 139 86c5 4 12 9 17 9
s6 -6 6 -13c0 -5 -3 -58 -3 -151zM161 -14l-20 17c-4 2 -4 6 1 13l540 705c4 5 7 10 13 5l18 -14c4 -3 4 -7 2 -10l-542 -713c-4 -6 -8 -6 -12 -3z" />
    <glyph glyph-name="divide" unicode="&#xf7;" horiz-adv-x="510" 
d="M257 370l-1 -1c-28 0 -48 22 -48 50c0 30 20 51 48 51c29 0 51 -21 51 -49c1 -29 -20 -51 -50 -51zM468 294v-51h-426v51h426zM256 67v-1c-28 0 -48 22 -48 50c0 30 20 51 48 51c29 0 51 -21 51 -49c1 -29 -20 -51 -51 -51z" />
    <glyph glyph-name="brokenbar" unicode="&#xa6;" horiz-adv-x="510" 
d="M282 325h-54v350h54v-350zM282 -175h-54v350h54v-350z" />
    <glyph glyph-name="degree" unicode="&#xb0;" horiz-adv-x="308" 
d="M253 595l-1 1c0 -63 -51 -106 -106 -106c-62 0 -104 47 -104 101c0 59 46 105 105 105h2c64 0 104 -47 104 -101zM206 595c0 29 -18 63 -61 63c-38 0 -59 -34 -59 -65c0 -34 26 -62 60 -62s60 28 60 64z" />
    <glyph glyph-name="thorn" unicode="&#xfe;" horiz-adv-x="586" 
d="M155 244v150c0 132 0 156 -2 183c-2 29 -9 43 -36 47c-7 1 -22 2 -30 2c-3 0 -7 4 -7 7c0 5 4 7 14 7c40 0 93 -2 100 -2c5 0 62 2 105 2c10 0 15 -2 15 -6c0 -3 -4 -8 -8 -8c-7 0 -22 -1 -34 -3c-26 -4 -37 -19 -37 -43c-1 -36 -2 -63 -2 -80c23 2 42 3 76 3
c110 0 154 -31 175 -49c20 -17 46 -59 46 -104c0 -120 -105 -198 -230 -198c-5 0 -16 0 -21 1c-4 0 -9 2 -9 6c0 7 5 10 23 10c86 0 159 62 159 146c0 22 -5 78 -49 121c-44 44 -107 40 -127 40c-15 0 -27 -3 -36 -6c-5 -2 -7 -7 -7 -16v-210c0 -82 0 -149 4 -184
c3 -25 7 -41 34 -45c12 -2 30 -4 38 -4c5 0 7 -4 7 -7c0 -4 -4 -7 -14 -7c-48 0 -106 3 -110 3c-3 0 -58 -3 -85 -3c-9 0 -14 2 -14 7c0 3 2 7 7 7c8 0 18 2 26 4c17 4 20 20 24 45c5 35 5 102 5 184z" />
    <glyph glyph-name="threequarters" unicode="&#xbe;" horiz-adv-x="807" 
d="M674 160h48c17 0 25 6 28 6s6 -3 6 -6s-3 -18 -6 -28c-2 -6 -5 -8 -12 -8h-64c0 -14 -2 -53 0 -79c2 -17 7 -29 27 -31c9 -1 21 -2 28 -2c3 0 5 -3 5 -6s-2 -7 -9 -7c-34 0 -81 2 -86 2c-4 0 -41 -2 -75 -2c-7 0 -7 3 -7 6s3 7 7 7c5 0 19 1 28 2c21 2 26 14 27 31
c1 26 1 65 1 79h-209c-8 0 -13 3 -13 8c0 7 7 13 10 16c4 4 224 256 244 281c6 7 10 11 15 11c6 0 7 -4 7 -10v-270zM620 160v190h-1c-12 -12 -147 -171 -164 -190h165zM221 544v-2c35 -6 113 -39 113 -109c0 -79 -80 -147 -184 -147c-33 0 -71 4 -84 12c-10 6 -10 9 -10 26
c0 16 1 49 3 61c1 7 3 8 6 8s4 -1 5 -7c4 -38 25 -72 98 -72c57 0 103 37 103 104c0 65 -64 94 -112 100c-15 2 -19 4 -19 8c0 6 5 9 17 11c27 4 95 36 95 97c0 20 -17 70 -83 70c-44 0 -83 -27 -83 -62c0 -9 0 -12 -4 -12s-6 2 -7 10c-3 17 -6 43 -6 56c0 5 0 11 9 15
c20 9 53 18 107 18c102 0 125 -53 125 -81c0 -56 -63 -94 -89 -104zM159 -14l-20 17c-4 2 -3 6 2 13l539 705c4 5 7 10 13 5l19 -14c4 -3 3 -7 1 -10l-542 -713c-4 -6 -8 -6 -12 -3z" />
    <glyph glyph-name="twosuperior" unicode="&#xb2;" horiz-adv-x="444" 
d="M316 305h-253c-7 0 -11 3 -11 8c0 6 8 12 12 16c102 82 227 180 227 299c0 87 -58 113 -97 113c-29 0 -50 -6 -70 -27c-12 -13 -22 -30 -22 -55c0 -8 -4 -11 -8 -11c-3 0 -5 5 -6 11c-1 5 -4 52 -4 69c0 9 1 11 7 14c29 14 68 25 115 25c100 0 151 -58 151 -119
c0 -119 -124 -221 -222 -298c1 -1 -1 -4 3 -4h33c11 0 104 3 115 4c49 4 66 19 76 51c3 8 5 10 9 10s5 -4 5 -9c0 -11 -12 -60 -23 -80c-7 -13 -21 -17 -37 -17z" />
    <glyph glyph-name="registered" unicode="&#xae;" horiz-adv-x="206" 
d="M103 592c-53 0 -92 38 -92 87c0 51 39 88 92 88s92 -37 92 -88c0 -49 -39 -87 -92 -87zM104 607c42 0 74 31 74 73c0 43 -32 72 -75 72s-75 -29 -75 -72c0 -42 32 -73 76 -73zM69 672v22c0 15 -1 22 -1 27c0 6 -3 7 -11 7c-1 0 -3 1 -3 2c0 2 2 3 5 3h5c2 0 10 -1 13 -1
c9 0 13 1 21 1c17 0 42 -3 42 -27c0 -10 -3 -18 -18 -30l17 -21c13 -16 17 -17 19 -17s3 -1 3 -2c0 -2 -1 -3 -7 -3c-13 0 -20 -1 -35 19l-14 19h-18v-9c0 -20 1 -21 2 -22c2 -1 7 -2 10 -2c2 0 3 0 3 -2s-2 -3 -4 -3h-4c-2 0 -11 1 -16 1c-3 0 -13 -1 -15 -1h-5
c-2 0 -4 0 -4 2s2 3 4 3c9 0 9 0 10 6c0 5 1 12 1 28zM87 722v-40c3 -2 9 -3 15 -3c3 0 7 1 10 3c5 3 9 8 9 18c0 14 -9 24 -25 24c-1 0 -7 0 -9 -2z" />
    <glyph glyph-name="minus" unicode="&#x2212;" horiz-adv-x="510" 
d="M468 294v-51h-426v51h426z" />
    <glyph glyph-name="eth" unicode="&#xf0;" horiz-adv-x="809" 
d="M155 338v56c0 132 0 156 -2 183c-2 29 -7 43 -36 47c-7 1 -22 2 -30 2c-3 0 -7 4 -7 7c0 5 4 7 14 7c40 0 95 -2 100 -2c10 0 68 2 120 2c88 0 249 8 353 -97c44 -44 86 -115 86 -216c0 -107 -46 -189 -95 -239c-38 -39 -117 -98 -267 -98c-38 0 -85 3 -124 5
c-39 3 -69 5 -73 5c-2 0 -17 -1 -35 -1c-18 -1 -38 -2 -52 -2c-9 0 -14 2 -14 7c0 3 2 7 7 7c8 0 19 2 27 4c17 4 19 20 23 45c5 35 5 102 5 184v61h-76c-7 0 -7 3 -6 9l3 17c1 6 4 7 11 7h68zM235 304v-45c0 -72 0 -128 1 -142c1 -21 3 -52 10 -61c11 -16 42 -34 146 -34
c81 0 155 28 207 78c46 43 68 123 68 201c0 108 -46 176 -82 212c-83 84 -181 95 -287 95c-20 0 -47 -2 -52 -6c-8 -3 -11 -7 -11 -17v-246h178c6 0 8 -3 6 -9l-3 -19c-1 -6 -7 -7 -12 -7h-169z" />
    <glyph glyph-name="multiply" unicode="&#xd7;" horiz-adv-x="510" 
d="M56 430l36 37l162 -167l163 167l38 -37l-163 -167l163 -166l-37 -37l-163 166l-162 -166l-38 37l163 166z" />
    <glyph glyph-name="threesuperior" unicode="&#xb3;" horiz-adv-x="413" 
d="M158 301c-35 0 -74 5 -88 13c-11 6 -11 9 -11 27c0 17 1 51 3 64c1 7 3 9 6 9s5 -2 6 -8c4 -40 26 -75 103 -75c60 0 108 38 108 109c0 68 -67 99 -118 105c-16 2 -20 5 -20 9c0 6 5 9 18 11c28 4 100 38 100 102c0 21 -17 74 -87 74c-46 0 -87 -28 -87 -65
c0 -9 -1 -13 -5 -13s-6 3 -7 11c-3 18 -6 45 -6 59c0 5 0 11 9 15c21 9 56 19 113 19c107 0 131 -56 131 -85c0 -59 -66 -98 -93 -109v-2c37 -6 119 -41 119 -115c0 -83 -84 -155 -194 -155z" />
    <glyph glyph-name="copyright" unicode="&#xa9;" horiz-adv-x="906" 
d="M454 -17c-217 0 -392 174 -392 391c0 218 175 393 392 393c215 0 390 -175 390 -393c0 -217 -175 -391 -390 -391zM454 27c191 0 333 158 333 348c0 191 -142 348 -333 348c-192 0 -335 -157 -335 -348c0 -190 143 -349 335 -348zM477 150c-148 0 -252 92 -252 234
c0 84 43 138 68 162c40 39 96 60 171 60c14 0 47 -2 82 -8c15 -2 58 -12 60 -12c4 0 8 1 11 1c2 0 2 -2 2 -5c0 -4 -3 -79 -6 -97c-1 -6 -3 -8 -10 -8c-5 0 -9 5 -9 11c-1 15 -1 31 -16 47c-7 8 -41 35 -123 35c-100 0 -155 -58 -155 -163c0 -142 90 -216 184 -216
c56 0 77 13 89 25c14 13 19 31 23 47c2 6 6 10 11 10c8 0 9 -4 9 -9c0 -8 -3 -40 -10 -71c-5 -22 -6 -27 -22 -31c-44 -12 -91 -12 -107 -12z" />
    <glyph glyph-name="Aacute" unicode="&#xc1;" horiz-adv-x="700" 
d="M95 107l227 621c12 33 16 39 22 39s10 -5 22 -36c15 -38 172 -451 233 -603c36 -89 65 -105 86 -111c15 -5 30 -6 40 -6c6 0 10 -1 10 -6c0 -6 -9 -8 -20 -8c-15 0 -88 0 -157 2c-19 1 -30 1 -30 7c0 4 3 6 7 7c6 2 12 11 6 27l-93 246c-2 4 -4 6 -9 6h-215
c-5 0 -8 -3 -10 -8l-60 -177c-9 -25 -14 -49 -14 -67c0 -20 21 -29 38 -29h10c7 0 10 -2 10 -6c0 -6 -6 -8 -15 -8c-24 0 -67 3 -78 3s-66 -3 -113 -3c-13 0 -19 2 -19 8c0 4 4 6 9 6c7 0 21 1 29 2c46 6 66 44 84 94zM235 328h191c5 0 5 3 4 7l-95 270c-5 15 -10 15 -15 0
l-88 -270c-2 -5 0 -7 3 -7zM478 933c7 -10 14 -24 25 -44c5 -9 0 -12 -4 -12c-3 0 -13 2 -30 0c-49 -5 -119 -28 -152 -42c-7 -3 -13 -5 -15 -5s-5 2 -5 6c0 3 2 5 7 8c36 25 129 81 136 85c17 10 23 13 28 13c3 0 5 -2 10 -9z" />
    <glyph glyph-name="Acircumflex" unicode="&#xc2;" horiz-adv-x="700" 
d="M95 107l227 621c12 33 16 39 22 39s10 -5 22 -36c15 -38 172 -451 233 -603c36 -89 65 -105 86 -111c15 -5 30 -6 40 -6c6 0 10 -1 10 -6c0 -6 -9 -8 -20 -8c-15 0 -88 0 -157 2c-19 1 -30 1 -30 7c0 4 3 6 7 7c6 2 12 11 6 27l-93 246c-2 4 -4 6 -9 6h-215
c-5 0 -8 -3 -10 -8l-60 -177c-9 -25 -14 -49 -14 -67c0 -20 21 -29 38 -29h10c7 0 10 -2 10 -6c0 -6 -6 -8 -15 -8c-24 0 -67 3 -78 3s-66 -3 -113 -3c-13 0 -19 2 -19 8c0 4 4 6 9 6c7 0 21 1 29 2c46 6 66 44 84 94zM235 328h191c5 0 5 3 4 7l-95 270c-5 15 -10 15 -15 0
l-88 -270c-2 -5 0 -7 3 -7zM477 845l-21 -22c-4 -4 -6 -6 -9 -6s-5 1 -8 5c-20 22 -72 62 -84 69c-4 2 -7 4 -10 4c-4 0 -8 -1 -16 -5c-23 -12 -61 -43 -85 -63c-8 -7 -15 -10 -18 -10c-4 0 -7 4 -7 8s3 7 6 11c10 10 101 94 112 104c8 7 13 10 16 10c4 0 8 -4 16 -10
s88 -66 101 -76c9 -6 12 -8 12 -10c0 -3 -3 -6 -5 -9z" />
    <glyph glyph-name="Adieresis" unicode="&#xc4;" horiz-adv-x="700" 
d="M95 107l227 621c12 33 16 39 22 39s10 -5 22 -36c15 -38 172 -451 233 -603c36 -89 65 -105 86 -111c15 -5 30 -6 40 -6c6 0 10 -1 10 -6c0 -6 -9 -8 -20 -8c-15 0 -88 0 -157 2c-19 1 -30 1 -30 7c0 4 3 6 7 7c6 2 12 11 6 27l-93 246c-2 4 -4 6 -9 6h-215
c-5 0 -8 -3 -10 -8l-60 -177c-9 -25 -14 -49 -14 -67c0 -20 21 -29 38 -29h10c7 0 10 -2 10 -6c0 -6 -6 -8 -15 -8c-24 0 -67 3 -78 3s-66 -3 -113 -3c-13 0 -19 2 -19 8c0 4 4 6 9 6c7 0 21 1 29 2c46 6 66 44 84 94zM235 328h191c5 0 5 3 4 7l-95 270c-5 15 -10 15 -15 0
l-88 -270c-2 -5 0 -7 3 -7zM450 830c-30 0 -42 24 -42 43c0 18 12 43 43 43c24 0 43 -15 43 -40c0 -26 -17 -46 -44 -46zM249 830c-30 0 -42 24 -42 43c0 18 12 43 43 43c24 0 43 -15 43 -40c0 -26 -17 -46 -44 -46z" />
    <glyph glyph-name="Agrave" unicode="&#xc0;" horiz-adv-x="700" 
d="M95 107l227 621c12 33 16 39 22 39s10 -5 22 -36c15 -38 172 -451 233 -603c36 -89 65 -105 86 -111c15 -5 30 -6 40 -6c6 0 10 -1 10 -6c0 -6 -9 -8 -20 -8c-15 0 -88 0 -157 2c-19 1 -30 1 -30 7c0 4 3 6 7 7c6 2 12 11 6 27l-93 246c-2 4 -4 6 -9 6h-215
c-5 0 -8 -3 -10 -8l-60 -177c-9 -25 -14 -49 -14 -67c0 -20 21 -29 38 -29h10c7 0 10 -2 10 -6c0 -6 -6 -8 -15 -8c-24 0 -67 3 -78 3s-66 -3 -113 -3c-13 0 -19 2 -19 8c0 4 4 6 9 6c7 0 21 1 29 2c46 6 66 44 84 94zM235 328h191c5 0 5 3 4 7l-95 270c-5 15 -10 15 -15 0
l-88 -270c-2 -5 0 -7 3 -7zM401 830c-18 0 -165 53 -181 59c-21 8 -29 12 -29 17s4 6 11 8c21 6 48 14 60 19c8 3 12 5 16 5c5 0 6 -7 15 -16c8 -8 57 -47 98 -73c10 -7 19 -10 19 -14c0 -3 -4 -5 -9 -5z" />
    <glyph glyph-name="Aring" unicode="&#xc5;" horiz-adv-x="700" 
d="M95 107l227 621c12 33 16 39 22 39s10 -5 22 -36c15 -38 172 -451 233 -603c36 -89 65 -105 86 -111c15 -5 30 -6 40 -6c6 0 10 -1 10 -6c0 -6 -9 -8 -20 -8c-15 0 -88 0 -157 2c-19 1 -30 1 -30 7c0 4 3 6 7 7c6 2 12 11 6 27l-93 246c-2 4 -4 6 -9 6h-215
c-5 0 -8 -3 -10 -8l-60 -177c-9 -25 -14 -49 -14 -67c0 -20 21 -29 38 -29h10c7 0 10 -2 10 -6c0 -6 -6 -8 -15 -8c-24 0 -67 3 -78 3s-66 -3 -113 -3c-13 0 -19 2 -19 8c0 4 4 6 9 6c7 0 21 1 29 2c46 6 66 44 84 94zM235 328h191c5 0 5 3 4 7l-95 270c-5 15 -10 15 -15 0
l-88 -270c-2 -5 0 -7 3 -7zM329 820c-50 0 -78 25 -78 59c0 45 49 86 118 86c51 0 82 -23 82 -57c1 -55 -64 -88 -122 -88zM345 844c33 0 59 23 59 51c0 24 -16 46 -52 46c-23 0 -57 -15 -57 -49c0 -30 26 -48 50 -48z" />
    <glyph glyph-name="Atilde" unicode="&#xc3;" horiz-adv-x="700" 
d="M95 107l227 621c12 33 16 39 22 39s10 -5 22 -36c15 -38 172 -451 233 -603c36 -89 65 -105 86 -111c15 -5 30 -6 40 -6c6 0 10 -1 10 -6c0 -6 -9 -8 -20 -8c-15 0 -88 0 -157 2c-19 1 -30 1 -30 7c0 4 3 6 7 7c6 2 12 11 6 27l-93 246c-2 4 -4 6 -9 6h-215
c-5 0 -8 -3 -10 -8l-60 -177c-9 -25 -14 -49 -14 -67c0 -20 21 -29 38 -29h10c7 0 10 -2 10 -6c0 -6 -6 -8 -15 -8c-24 0 -67 3 -78 3s-66 -3 -113 -3c-13 0 -19 2 -19 8c0 4 4 6 9 6c7 0 21 1 29 2c46 6 66 44 84 94zM235 328h191c5 0 5 3 4 7l-95 270c-5 15 -10 15 -15 0
l-88 -270c-2 -5 0 -7 3 -7zM421 830c-33 0 -65 19 -79 26c-18 8 -37 23 -68 23c-35 0 -54 -28 -61 -36c-5 -6 -10 -9 -14 -9s-6 3 -6 6c0 5 3 9 7 15c14 22 54 71 86 71c24 0 53 -16 84 -31c14 -7 42 -17 58 -17c37 0 58 25 61 29c4 6 9 11 12 11c4 0 7 -3 7 -6
c0 -4 -1 -7 -4 -13c-8 -16 -52 -69 -83 -69z" />
    <glyph glyph-name="Ccedilla" unicode="&#xc7;" horiz-adv-x="805" 
d="M154 395c0 -191 147 -366 361 -366c75 0 134 9 174 50c21 22 34 66 37 84c2 11 4 15 10 15c5 0 7 -7 7 -15c0 -7 -12 -94 -22 -128c-6 -19 -8 -21 -26 -29c-40 -16 -116 -23 -180 -23c-8 0 -15 0 -22 1c-17 -14 -49 -45 -56 -52c62 -6 100 -30 100 -71
c0 -39 -37 -68 -71 -82c-27 -12 -59 -18 -78 -18c-7 0 -13 3 -13 8c0 9 9 10 20 11c35 4 74 25 74 61c0 29 -13 56 -72 73c-11 3 -15 5 -15 9c0 3 4 7 13 14l59 49c-117 8 -201 44 -269 105c-97 87 -121 201 -121 296c0 67 23 184 112 273c60 60 151 107 305 107
c40 0 96 -3 145 -12c38 -7 70 -13 102 -15c11 -1 13 -5 13 -11c0 -8 -3 -20 -5 -56c-2 -33 -2 -88 -3 -103s-3 -21 -9 -21c-7 0 -8 7 -8 21c0 39 -16 80 -42 102c-35 30 -112 57 -200 57c-133 0 -195 -39 -230 -73c-73 -70 -90 -159 -90 -261z" />
    <glyph glyph-name="Eacute" unicode="&#xc9;" horiz-adv-x="610" 
d="M178 287v176c0 156 0 184 -2 216c-2 34 -10 50 -43 57c-8 2 -25 3 -34 3c-4 0 -8 2 -8 6c0 6 5 8 16 8c23 0 50 0 72 -1l41 -2c7 0 206 0 229 1c19 1 35 3 43 5c5 1 9 5 14 5c3 0 4 -4 4 -9c0 -7 -5 -19 -8 -47c-1 -10 -3 -54 -5 -66c-1 -5 -3 -11 -7 -11
c-6 0 -8 5 -8 13c0 7 -1 24 -6 36c-7 16 -17 28 -71 34c-17 2 -126 3 -137 3c-4 0 -6 -3 -6 -10v-276c0 -7 1 -10 6 -10c13 0 136 0 159 2c24 2 38 4 47 14c7 8 11 13 15 13c3 0 5 -2 5 -8s-5 -23 -8 -56c-2 -20 -4 -57 -4 -64c0 -8 0 -19 -7 -19c-5 0 -7 4 -7 9
c0 10 0 20 -4 33c-4 14 -13 31 -52 35c-27 3 -126 5 -143 5c-5 0 -7 -3 -7 -7v-88c0 -34 -1 -150 0 -171c3 -69 18 -82 116 -82c26 0 70 0 96 11s38 31 45 72c2 11 4 15 9 15c6 0 6 -8 6 -15c0 -8 -8 -76 -13 -97c-7 -26 -15 -26 -54 -26c-75 0 -130 2 -169 3
c-39 2 -63 3 -78 3c-2 0 -19 0 -40 -1c-20 0 -43 -2 -58 -2c-11 0 -16 2 -16 8c0 3 2 6 8 6c9 0 21 2 30 4c20 4 25 26 29 55c5 42 5 121 5 217zM442 933c7 -10 14 -24 25 -44c5 -9 0 -12 -4 -12c-3 0 -13 2 -30 0c-49 -5 -119 -28 -152 -42c-7 -3 -13 -5 -15 -5s-5 2 -5 6
c0 3 2 5 7 8c36 25 129 81 136 85c17 10 23 13 28 13c3 0 5 -2 10 -9z" />
    <glyph glyph-name="Ecircumflex" unicode="&#xca;" horiz-adv-x="610" 
d="M178 287v176c0 156 0 184 -2 216c-2 34 -10 50 -43 57c-8 2 -25 3 -34 3c-4 0 -8 2 -8 6c0 6 5 8 16 8c23 0 50 0 72 -1l41 -2c7 0 206 0 229 1c19 1 35 3 43 5c5 1 9 5 14 5c3 0 4 -4 4 -9c0 -7 -5 -19 -8 -47c-1 -10 -3 -54 -5 -66c-1 -5 -3 -11 -7 -11
c-6 0 -8 5 -8 13c0 7 -1 24 -6 36c-7 16 -17 28 -71 34c-17 2 -126 3 -137 3c-4 0 -6 -3 -6 -10v-276c0 -7 1 -10 6 -10c13 0 136 0 159 2c24 2 38 4 47 14c7 8 11 13 15 13c3 0 5 -2 5 -8s-5 -23 -8 -56c-2 -20 -4 -57 -4 -64c0 -8 0 -19 -7 -19c-5 0 -7 4 -7 9
c0 10 0 20 -4 33c-4 14 -13 31 -52 35c-27 3 -126 5 -143 5c-5 0 -7 -3 -7 -7v-88c0 -34 -1 -150 0 -171c3 -69 18 -82 116 -82c26 0 70 0 96 11s38 31 45 72c2 11 4 15 9 15c6 0 6 -8 6 -15c0 -8 -8 -76 -13 -97c-7 -26 -15 -26 -54 -26c-75 0 -130 2 -169 3
c-39 2 -63 3 -78 3c-2 0 -19 0 -40 -1c-20 0 -43 -2 -58 -2c-11 0 -16 2 -16 8c0 3 2 6 8 6c9 0 21 2 30 4c20 4 25 26 29 55c5 42 5 121 5 217zM451 845l-21 -22c-4 -4 -6 -6 -9 -6s-5 1 -8 5c-20 22 -72 62 -84 69c-4 2 -7 4 -10 4c-4 0 -8 -1 -16 -5
c-23 -12 -61 -43 -85 -63c-8 -7 -15 -10 -18 -10c-4 0 -7 4 -7 8s3 7 6 11c10 10 101 94 112 104c8 7 13 10 16 10c4 0 8 -4 16 -10s88 -66 101 -76c9 -6 12 -8 12 -10c0 -3 -3 -6 -5 -9z" />
    <glyph glyph-name="Edieresis" unicode="&#xcb;" horiz-adv-x="610" 
d="M178 287v176c0 156 0 184 -2 216c-2 34 -10 50 -43 57c-8 2 -25 3 -34 3c-4 0 -8 2 -8 6c0 6 5 8 16 8c23 0 50 0 72 -1l41 -2c7 0 206 0 229 1c19 1 35 3 43 5c5 1 9 5 14 5c3 0 4 -4 4 -9c0 -7 -5 -19 -8 -47c-1 -10 -3 -54 -5 -66c-1 -5 -3 -11 -7 -11
c-6 0 -8 5 -8 13c0 7 -1 24 -6 36c-7 16 -17 28 -71 34c-17 2 -126 3 -137 3c-4 0 -6 -3 -6 -10v-276c0 -7 1 -10 6 -10c13 0 136 0 159 2c24 2 38 4 47 14c7 8 11 13 15 13c3 0 5 -2 5 -8s-5 -23 -8 -56c-2 -20 -4 -57 -4 -64c0 -8 0 -19 -7 -19c-5 0 -7 4 -7 9
c0 10 0 20 -4 33c-4 14 -13 31 -52 35c-27 3 -126 5 -143 5c-5 0 -7 -3 -7 -7v-88c0 -34 -1 -150 0 -171c3 -69 18 -82 116 -82c26 0 70 0 96 11s38 31 45 72c2 11 4 15 9 15c6 0 6 -8 6 -15c0 -8 -8 -76 -13 -97c-7 -26 -15 -26 -54 -26c-75 0 -130 2 -169 3
c-39 2 -63 3 -78 3c-2 0 -19 0 -40 -1c-20 0 -43 -2 -58 -2c-11 0 -16 2 -16 8c0 3 2 6 8 6c9 0 21 2 30 4c20 4 25 26 29 55c5 42 5 121 5 217zM424 830c-30 0 -42 24 -42 43c0 18 12 43 43 43c24 0 43 -15 43 -40c0 -26 -17 -46 -44 -46zM223 830c-30 0 -42 24 -42 43
c0 18 12 43 43 43c24 0 43 -15 43 -40c0 -26 -17 -46 -44 -46z" />
    <glyph glyph-name="Egrave" unicode="&#xc8;" horiz-adv-x="610" 
d="M178 287v176c0 156 0 184 -2 216c-2 34 -10 50 -43 57c-8 2 -25 3 -34 3c-4 0 -8 2 -8 6c0 6 5 8 16 8c23 0 50 0 72 -1l41 -2c7 0 206 0 229 1c19 1 35 3 43 5c5 1 9 5 14 5c3 0 4 -4 4 -9c0 -7 -5 -19 -8 -47c-1 -10 -3 -54 -5 -66c-1 -5 -3 -11 -7 -11
c-6 0 -8 5 -8 13c0 7 -1 24 -6 36c-7 16 -17 28 -71 34c-17 2 -126 3 -137 3c-4 0 -6 -3 -6 -10v-276c0 -7 1 -10 6 -10c13 0 136 0 159 2c24 2 38 4 47 14c7 8 11 13 15 13c3 0 5 -2 5 -8s-5 -23 -8 -56c-2 -20 -4 -57 -4 -64c0 -8 0 -19 -7 -19c-5 0 -7 4 -7 9
c0 10 0 20 -4 33c-4 14 -13 31 -52 35c-27 3 -126 5 -143 5c-5 0 -7 -3 -7 -7v-88c0 -34 -1 -150 0 -171c3 -69 18 -82 116 -82c26 0 70 0 96 11s38 31 45 72c2 11 4 15 9 15c6 0 6 -8 6 -15c0 -8 -8 -76 -13 -97c-7 -26 -15 -26 -54 -26c-75 0 -130 2 -169 3
c-39 2 -63 3 -78 3c-2 0 -19 0 -40 -1c-20 0 -43 -2 -58 -2c-11 0 -16 2 -16 8c0 3 2 6 8 6c9 0 21 2 30 4c20 4 25 26 29 55c5 42 5 121 5 217zM375 830c-18 0 -165 53 -181 59c-21 8 -29 12 -29 17s4 6 11 8c21 6 48 14 60 19c8 3 12 5 16 5c5 0 6 -7 15 -16
c8 -8 57 -47 98 -73c10 -7 19 -10 19 -14c0 -3 -4 -5 -9 -5z" />
    <glyph glyph-name="Iacute" unicode="&#xcd;" horiz-adv-x="440" 
d="M262 463v-176c0 -96 0 -175 5 -217c3 -29 9 -51 39 -55c14 -2 36 -4 45 -4c6 0 8 -3 8 -6c0 -5 -5 -8 -16 -8c-55 0 -118 3 -123 3s-68 -3 -98 -3c-11 0 -16 2 -16 8c0 3 2 6 8 6c9 0 21 2 30 4c20 4 25 26 29 55c5 42 5 121 5 217v176c0 156 0 184 -2 216
c-2 34 -12 51 -34 56c-11 3 -24 4 -31 4c-4 0 -8 2 -8 6c0 6 5 8 16 8c33 0 96 -3 101 -3s68 3 98 3c11 0 16 -2 16 -8c0 -4 -4 -6 -8 -6c-7 0 -13 -1 -25 -3c-27 -5 -35 -22 -37 -57c-2 -32 -2 -60 -2 -216zM348 933c7 -10 14 -24 25 -44c5 -9 0 -12 -4 -12
c-3 0 -13 2 -30 0c-49 -5 -119 -28 -152 -42c-7 -3 -13 -5 -15 -5s-5 2 -5 6c0 3 2 5 7 8c36 25 129 81 136 85c17 10 23 13 28 13c3 0 5 -2 10 -9z" />
    <glyph glyph-name="Icircumflex" unicode="&#xce;" horiz-adv-x="440" 
d="M262 463v-176c0 -96 0 -175 5 -217c3 -29 9 -51 39 -55c14 -2 36 -4 45 -4c6 0 8 -3 8 -6c0 -5 -5 -8 -16 -8c-55 0 -118 3 -123 3s-68 -3 -98 -3c-11 0 -16 2 -16 8c0 3 2 6 8 6c9 0 21 2 30 4c20 4 25 26 29 55c5 42 5 121 5 217v176c0 156 0 184 -2 216
c-2 34 -12 51 -34 56c-11 3 -24 4 -31 4c-4 0 -8 2 -8 6c0 6 5 8 16 8c33 0 96 -3 101 -3s68 3 98 3c11 0 16 -2 16 -8c0 -4 -4 -6 -8 -6c-7 0 -13 -1 -25 -3c-27 -5 -35 -22 -37 -57c-2 -32 -2 -60 -2 -216zM347 845l-21 -22c-4 -4 -6 -6 -9 -6s-5 1 -8 5
c-20 22 -72 62 -84 69c-4 2 -7 4 -10 4c-4 0 -8 -1 -16 -5c-23 -12 -61 -43 -85 -63c-8 -7 -15 -10 -18 -10c-4 0 -7 4 -7 8s3 7 6 11c10 10 101 94 112 104c8 7 13 10 16 10c4 0 8 -4 16 -10s88 -66 101 -76c9 -6 12 -8 12 -10c0 -3 -3 -6 -5 -9z" />
    <glyph glyph-name="Idieresis" unicode="&#xcf;" horiz-adv-x="440" 
d="M262 463v-176c0 -96 0 -175 5 -217c3 -29 9 -51 39 -55c14 -2 36 -4 45 -4c6 0 8 -3 8 -6c0 -5 -5 -8 -16 -8c-55 0 -118 3 -123 3s-68 -3 -98 -3c-11 0 -16 2 -16 8c0 3 2 6 8 6c9 0 21 2 30 4c20 4 25 26 29 55c5 42 5 121 5 217v176c0 156 0 184 -2 216
c-2 34 -12 51 -34 56c-11 3 -24 4 -31 4c-4 0 -8 2 -8 6c0 6 5 8 16 8c33 0 96 -3 101 -3s68 3 98 3c11 0 16 -2 16 -8c0 -4 -4 -6 -8 -6c-7 0 -13 -1 -25 -3c-27 -5 -35 -22 -37 -57c-2 -32 -2 -60 -2 -216zM320 830c-30 0 -42 24 -42 43c0 18 12 43 43 43
c24 0 43 -15 43 -40c0 -26 -17 -46 -44 -46zM119 830c-30 0 -42 24 -42 43c0 18 12 43 43 43c24 0 43 -15 43 -40c0 -26 -17 -46 -44 -46z" />
    <glyph glyph-name="Igrave" unicode="&#xcc;" horiz-adv-x="440" 
d="M262 463v-176c0 -96 0 -175 5 -217c3 -29 9 -51 39 -55c14 -2 36 -4 45 -4c6 0 8 -3 8 -6c0 -5 -5 -8 -16 -8c-55 0 -118 3 -123 3s-68 -3 -98 -3c-11 0 -16 2 -16 8c0 3 2 6 8 6c9 0 21 2 30 4c20 4 25 26 29 55c5 42 5 121 5 217v176c0 156 0 184 -2 216
c-2 34 -12 51 -34 56c-11 3 -24 4 -31 4c-4 0 -8 2 -8 6c0 6 5 8 16 8c33 0 96 -3 101 -3s68 3 98 3c11 0 16 -2 16 -8c0 -4 -4 -6 -8 -6c-7 0 -13 -1 -25 -3c-27 -5 -35 -22 -37 -57c-2 -32 -2 -60 -2 -216zM271 830c-18 0 -165 53 -181 59c-21 8 -29 12 -29 17s4 6 11 8
c21 6 48 14 60 19c8 3 12 5 16 5c5 0 6 -7 15 -16c8 -8 57 -47 98 -73c10 -7 19 -10 19 -14c0 -3 -4 -5 -9 -5z" />
    <glyph glyph-name="Ntilde" unicode="&#xd1;" horiz-adv-x="947" 
d="M192 612l13 -479c2 -82 12 -108 39 -116c19 -5 41 -6 50 -6c5 0 8 -2 8 -6c0 -6 -6 -8 -18 -8c-57 0 -97 3 -106 3s-51 -3 -96 -3c-10 0 -16 1 -16 8c0 4 3 6 8 6c8 0 26 1 41 6c25 7 30 36 30 127l1 573c0 39 3 50 11 50s25 -22 35 -32c15 -17 164 -178 318 -343
c99 -106 208 -228 240 -261l-11 508c-1 65 -8 87 -39 95c-18 4 -41 5 -49 5c-7 0 -8 3 -8 7c0 6 8 7 20 7c45 0 93 -3 104 -3s44 3 85 3c11 0 18 -1 18 -7c0 -4 -4 -7 -11 -7c-5 0 -12 0 -24 -3c-33 -7 -37 -29 -37 -89l-2 -586c0 -66 -2 -71 -9 -71c-8 0 -20 11 -73 64
c-11 10 -155 157 -261 271c-116 125 -229 251 -261 287zM554 830c-33 0 -65 19 -79 26c-18 8 -37 23 -68 23c-35 0 -54 -28 -61 -36c-5 -6 -10 -9 -14 -9s-6 3 -6 6c0 5 3 9 7 15c14 22 54 71 86 71c24 0 53 -16 84 -31c14 -7 42 -17 58 -17c37 0 58 25 61 29
c4 6 9 11 12 11c4 0 7 -3 7 -6c0 -4 -1 -7 -4 -13c-8 -16 -52 -69 -83 -69z" />
    <glyph glyph-name="Oacute" unicode="&#xd3;" horiz-adv-x="915" 
d="M64 376c0 162 118 391 394 391c225 0 393 -142 393 -375c0 -224 -158 -409 -399 -409c-274 0 -388 213 -388 393zM159 404c0 -233 140 -383 320 -383c90 0 276 52 276 343c0 240 -146 369 -304 369c-167 0 -292 -110 -292 -329zM585 933c7 -10 14 -24 25 -44
c5 -9 0 -12 -4 -12c-3 0 -13 2 -30 0c-49 -5 -119 -28 -152 -42c-7 -3 -13 -5 -15 -5s-5 2 -5 6c0 3 2 5 7 8c36 25 129 81 136 85c17 10 23 13 28 13c3 0 5 -2 10 -9z" />
    <glyph glyph-name="Ocircumflex" unicode="&#xd4;" horiz-adv-x="915" 
d="M64 376c0 162 118 391 394 391c225 0 393 -142 393 -375c0 -224 -158 -409 -399 -409c-274 0 -388 213 -388 393zM159 404c0 -233 140 -383 320 -383c90 0 276 52 276 343c0 240 -146 369 -304 369c-167 0 -292 -110 -292 -329zM584 845l-21 -22c-4 -4 -6 -6 -9 -6
s-5 1 -8 5c-20 22 -72 62 -84 69c-4 2 -7 4 -10 4c-4 0 -8 -1 -16 -5c-23 -12 -61 -43 -85 -63c-8 -7 -15 -10 -18 -10c-4 0 -7 4 -7 8s3 7 6 11c10 10 101 94 112 104c8 7 13 10 16 10c4 0 8 -4 16 -10s88 -66 101 -76c9 -6 12 -8 12 -10c0 -3 -3 -6 -5 -9z" />
    <glyph glyph-name="Odieresis" unicode="&#xd6;" horiz-adv-x="915" 
d="M64 376c0 162 118 391 394 391c225 0 393 -142 393 -375c0 -224 -158 -409 -399 -409c-274 0 -388 213 -388 393zM159 404c0 -233 140 -383 320 -383c90 0 276 52 276 343c0 240 -146 369 -304 369c-167 0 -292 -110 -292 -329zM557 830c-30 0 -42 24 -42 43
c0 18 12 43 43 43c24 0 43 -15 43 -40c0 -26 -17 -46 -44 -46zM356 830c-30 0 -42 24 -42 43c0 18 12 43 43 43c24 0 43 -15 43 -40c0 -26 -17 -46 -44 -46z" />
    <glyph glyph-name="Ograve" unicode="&#xd2;" horiz-adv-x="915" 
d="M64 376c0 162 118 391 394 391c225 0 393 -142 393 -375c0 -224 -158 -409 -399 -409c-274 0 -388 213 -388 393zM159 404c0 -233 140 -383 320 -383c90 0 276 52 276 343c0 240 -146 369 -304 369c-167 0 -292 -110 -292 -329zM508 830c-18 0 -165 53 -181 59
c-21 8 -29 12 -29 17s4 6 11 8c21 6 48 14 60 19c8 3 12 5 16 5c5 0 6 -7 15 -16c8 -8 57 -47 98 -73c10 -7 19 -10 19 -14c0 -3 -4 -5 -9 -5z" />
    <glyph glyph-name="Otilde" unicode="&#xd5;" horiz-adv-x="915" 
d="M64 376c0 162 118 391 394 391c225 0 393 -142 393 -375c0 -224 -158 -409 -399 -409c-274 0 -388 213 -388 393zM159 404c0 -233 140 -383 320 -383c90 0 276 52 276 343c0 240 -146 369 -304 369c-167 0 -292 -110 -292 -329zM528 830c-33 0 -65 19 -79 26
c-18 8 -37 23 -68 23c-35 0 -54 -28 -61 -36c-5 -6 -10 -9 -14 -9s-6 3 -6 6c0 5 3 9 7 15c14 22 54 71 86 71c24 0 53 -16 84 -31c14 -7 42 -17 58 -17c37 0 58 25 61 29c4 6 9 11 12 11c4 0 7 -3 7 -6c0 -4 -1 -7 -4 -13c-8 -16 -52 -69 -83 -69z" />
    <glyph glyph-name="Scaron" unicode="&#x160;" horiz-adv-x="570" 
d="M248 -17c-47 0 -93 7 -134 27c-14 7 -15 11 -15 38c0 50 4 90 5 106c1 11 3 16 8 16c6 0 7 -3 7 -11c0 -9 0 -23 3 -37c15 -74 81 -102 148 -102c96 0 143 69 143 133c0 69 -29 109 -115 180l-45 37c-106 87 -130 149 -130 217c0 107 80 180 207 180c39 0 68 -4 93 -10
c19 -4 27 -5 35 -5s10 -2 10 -7s-4 -38 -4 -106c0 -16 -2 -23 -7 -23c-6 0 -7 5 -8 13c-1 12 -7 39 -13 50s-33 53 -125 53c-69 0 -123 -43 -123 -116c0 -57 26 -93 122 -168l28 -22c118 -93 146 -155 146 -235c0 -41 -16 -117 -85 -166c-43 -30 -97 -42 -151 -42zM178 920
l21 22c4 4 6 6 9 6s5 -1 8 -5c20 -22 71 -63 84 -69c4 -2 7 -4 10 -4c4 0 8 1 16 5c23 12 61 43 85 63c8 7 15 10 18 10c4 0 7 -4 7 -8s-3 -7 -6 -11c-10 -10 -101 -94 -112 -104c-8 -7 -13 -10 -17 -10c-3 0 -7 3 -15 10c-8 6 -88 66 -101 76c-9 6 -12 8 -12 10
c0 3 3 6 5 9z" />
    <glyph glyph-name="Uacute" unicode="&#xda;" horiz-adv-x="830" 
d="M120 317v146c0 156 0 184 -2 216c-2 34 -10 50 -43 57c-8 2 -25 3 -34 3c-4 0 -8 2 -8 6c0 6 5 8 16 8c45 0 106 -3 115 -3s69 3 99 3c11 0 16 -2 16 -8c0 -4 -4 -6 -8 -6c-7 0 -13 -1 -25 -3c-27 -4 -35 -22 -37 -57c-2 -32 -2 -60 -2 -216v-140c0 -144 32 -206 75 -247
c49 -46 94 -55 151 -55c61 0 121 29 157 72c46 57 58 142 58 245v125c0 156 0 184 -2 216c-2 34 -10 50 -43 57c-8 2 -25 3 -34 3c-4 0 -8 2 -8 6c0 6 5 8 16 8c45 0 100 -3 106 -3c7 0 54 3 84 3c11 0 16 -2 16 -8c0 -4 -4 -6 -8 -6c-7 0 -13 -1 -25 -3
c-27 -6 -35 -22 -37 -57c-2 -32 -2 -60 -2 -216v-107c0 -108 -12 -228 -92 -299c-72 -64 -147 -74 -206 -74c-34 0 -135 4 -206 71c-49 47 -87 117 -87 263zM562 933c7 -10 14 -24 25 -44c5 -9 0 -12 -4 -12c-3 0 -13 2 -30 0c-49 -5 -119 -28 -152 -42c-7 -3 -13 -5 -15 -5
s-5 2 -5 6c0 3 2 5 7 8c36 25 129 81 136 85c17 10 23 13 28 13c3 0 5 -2 10 -9z" />
    <glyph glyph-name="Ucircumflex" unicode="&#xdb;" horiz-adv-x="830" 
d="M120 317v146c0 156 0 184 -2 216c-2 34 -10 50 -43 57c-8 2 -25 3 -34 3c-4 0 -8 2 -8 6c0 6 5 8 16 8c45 0 106 -3 115 -3s69 3 99 3c11 0 16 -2 16 -8c0 -4 -4 -6 -8 -6c-7 0 -13 -1 -25 -3c-27 -4 -35 -22 -37 -57c-2 -32 -2 -60 -2 -216v-140c0 -144 32 -206 75 -247
c49 -46 94 -55 151 -55c61 0 121 29 157 72c46 57 58 142 58 245v125c0 156 0 184 -2 216c-2 34 -10 50 -43 57c-8 2 -25 3 -34 3c-4 0 -8 2 -8 6c0 6 5 8 16 8c45 0 100 -3 106 -3c7 0 54 3 84 3c11 0 16 -2 16 -8c0 -4 -4 -6 -8 -6c-7 0 -13 -1 -25 -3
c-27 -6 -35 -22 -37 -57c-2 -32 -2 -60 -2 -216v-107c0 -108 -12 -228 -92 -299c-72 -64 -147 -74 -206 -74c-34 0 -135 4 -206 71c-49 47 -87 117 -87 263zM556 845l-21 -22c-4 -4 -6 -6 -9 -6s-5 1 -8 5c-20 22 -72 62 -84 69c-4 2 -7 4 -10 4c-4 0 -8 -1 -16 -5
c-23 -12 -61 -43 -85 -63c-8 -7 -15 -10 -18 -10c-4 0 -7 4 -7 8s3 7 6 11c10 10 101 94 112 104c8 7 13 10 16 10c4 0 8 -4 16 -10s88 -66 101 -76c9 -6 12 -8 12 -10c0 -3 -3 -6 -5 -9z" />
    <glyph glyph-name="Udieresis" unicode="&#xdc;" horiz-adv-x="830" 
d="M120 317v146c0 156 0 184 -2 216c-2 34 -10 50 -43 57c-8 2 -25 3 -34 3c-4 0 -8 2 -8 6c0 6 5 8 16 8c45 0 106 -3 115 -3s69 3 99 3c11 0 16 -2 16 -8c0 -4 -4 -6 -8 -6c-7 0 -13 -1 -25 -3c-27 -4 -35 -22 -37 -57c-2 -32 -2 -60 -2 -216v-140c0 -144 32 -206 75 -247
c49 -46 94 -55 151 -55c61 0 121 29 157 72c46 57 58 142 58 245v125c0 156 0 184 -2 216c-2 34 -10 50 -43 57c-8 2 -25 3 -34 3c-4 0 -8 2 -8 6c0 6 5 8 16 8c45 0 100 -3 106 -3c7 0 54 3 84 3c11 0 16 -2 16 -8c0 -4 -4 -6 -8 -6c-7 0 -13 -1 -25 -3
c-27 -6 -35 -22 -37 -57c-2 -32 -2 -60 -2 -216v-107c0 -108 -12 -228 -92 -299c-72 -64 -147 -74 -206 -74c-34 0 -135 4 -206 71c-49 47 -87 117 -87 263zM534 830c-30 0 -42 24 -42 43c0 18 12 43 43 43c24 0 43 -15 43 -40c0 -26 -17 -46 -44 -46zM333 830
c-30 0 -42 24 -42 43c0 18 12 43 43 43c24 0 43 -15 43 -40c0 -26 -17 -46 -44 -46z" />
    <glyph glyph-name="Ugrave" unicode="&#xd9;" horiz-adv-x="830" 
d="M120 317v146c0 156 0 184 -2 216c-2 34 -10 50 -43 57c-8 2 -25 3 -34 3c-4 0 -8 2 -8 6c0 6 5 8 16 8c45 0 106 -3 115 -3s69 3 99 3c11 0 16 -2 16 -8c0 -4 -4 -6 -8 -6c-7 0 -13 -1 -25 -3c-27 -4 -35 -22 -37 -57c-2 -32 -2 -60 -2 -216v-140c0 -144 32 -206 75 -247
c49 -46 94 -55 151 -55c61 0 121 29 157 72c46 57 58 142 58 245v125c0 156 0 184 -2 216c-2 34 -10 50 -43 57c-8 2 -25 3 -34 3c-4 0 -8 2 -8 6c0 6 5 8 16 8c45 0 100 -3 106 -3c7 0 54 3 84 3c11 0 16 -2 16 -8c0 -4 -4 -6 -8 -6c-7 0 -13 -1 -25 -3
c-27 -6 -35 -22 -37 -57c-2 -32 -2 -60 -2 -216v-107c0 -108 -12 -228 -92 -299c-72 -64 -147 -74 -206 -74c-34 0 -135 4 -206 71c-49 47 -87 117 -87 263zM470 830c-18 0 -165 53 -181 59c-21 8 -29 12 -29 17s4 6 11 8c21 6 48 14 60 19c8 3 12 5 16 5c5 0 6 -7 15 -16
c8 -8 57 -47 98 -73c10 -7 19 -10 19 -14c0 -3 -4 -5 -9 -5z" />
    <glyph glyph-name="Yacute" unicode="&#xdd;" horiz-adv-x="654" 
d="M289 170v86c0 54 -10 76 -23 105c-7 16 -141 236 -176 288c-25 37 -50 62 -68 74c-15 10 -34 16 -43 16c-5 0 -10 2 -10 7c0 4 4 7 13 7c19 0 94 -3 99 -3c7 0 45 3 84 3c11 0 13 -3 13 -7s-6 -5 -15 -9c-8 -4 -13 -10 -13 -18c0 -12 5 -24 13 -39
c16 -29 166 -287 184 -316c19 42 146 261 166 294c13 21 17 38 17 51c0 14 -4 25 -16 28c-9 3 -15 5 -15 10c0 4 6 6 16 6c26 0 58 -3 66 -3c6 0 78 3 97 3c7 0 13 -2 13 -6c0 -5 -5 -8 -13 -8c-11 0 -30 -4 -46 -14c-20 -12 -31 -24 -53 -51c-33 -40 -173 -275 -191 -318
c-15 -36 -15 -67 -15 -100v-86c0 -16 0 -58 3 -100c2 -29 11 -51 41 -55c14 -2 36 -4 45 -4c6 0 8 -3 8 -6c0 -5 -5 -8 -16 -8c-55 0 -118 3 -123 3s-68 -3 -98 -3c-11 0 -16 2 -16 8c0 3 2 6 8 6c9 0 21 2 30 4c20 4 29 26 31 55c3 42 3 84 3 100zM484 933
c7 -10 14 -24 25 -44c5 -9 0 -12 -4 -12c-3 0 -13 2 -30 0c-49 -5 -119 -28 -152 -42c-7 -3 -13 -5 -15 -5s-5 2 -5 6c0 3 2 5 7 8c36 25 129 81 136 85c17 10 23 13 28 13c3 0 5 -2 10 -9z" />
    <glyph glyph-name="Ydieresis" unicode="&#x178;" horiz-adv-x="654" 
d="M289 170v86c0 54 -10 76 -23 105c-7 16 -141 236 -176 288c-25 37 -50 62 -68 74c-15 10 -34 16 -43 16c-5 0 -10 2 -10 7c0 4 4 7 13 7c19 0 94 -3 99 -3c7 0 45 3 84 3c11 0 13 -3 13 -7s-6 -5 -15 -9c-8 -4 -13 -10 -13 -18c0 -12 5 -24 13 -39
c16 -29 166 -287 184 -316c19 42 146 261 166 294c13 21 17 38 17 51c0 14 -4 25 -16 28c-9 3 -15 5 -15 10c0 4 6 6 16 6c26 0 58 -3 66 -3c6 0 78 3 97 3c7 0 13 -2 13 -6c0 -5 -5 -8 -13 -8c-11 0 -30 -4 -46 -14c-20 -12 -31 -24 -53 -51c-33 -40 -173 -275 -191 -318
c-15 -36 -15 -67 -15 -100v-86c0 -16 0 -58 3 -100c2 -29 11 -51 41 -55c14 -2 36 -4 45 -4c6 0 8 -3 8 -6c0 -5 -5 -8 -16 -8c-55 0 -118 3 -123 3s-68 -3 -98 -3c-11 0 -16 2 -16 8c0 3 2 6 8 6c9 0 21 2 30 4c20 4 29 26 31 55c3 42 3 84 3 100zM451 830
c-30 0 -42 24 -42 43c0 18 12 43 43 43c24 0 43 -15 43 -40c0 -26 -17 -46 -44 -46zM250 830c-30 0 -42 24 -42 43c0 18 12 43 43 43c24 0 43 -15 43 -40c0 -26 -17 -46 -44 -46z" />
    <glyph glyph-name="Zcaron" unicode="&#x17d;" horiz-adv-x="692" 
d="M184 40h272c105 0 137 19 158 49c9 13 18 40 20 54c2 10 4 16 9 16c6 0 8 -4 8 -23c0 -31 -14 -90 -20 -115c-6 -24 -7 -26 -30 -26c-167 0 -335 5 -510 5c-12 0 -18 1 -18 8c0 5 2 10 14 28c149 225 300 450 439 676h-217c-51 0 -112 -3 -144 -20
c-36 -19 -54 -56 -57 -79c-2 -15 -6 -18 -11 -18s-6 5 -6 13c0 12 15 103 20 133c2 14 4 19 10 19c9 0 15 -6 42 -7c95 -4 143 -3 174 -3h279c15 0 20 -2 20 -8c0 -4 0 -6 -4 -12c-145 -230 -296 -460 -448 -690zM224 920l21 22c4 4 6 6 9 6s5 -1 8 -5c20 -22 71 -63 84 -69
c4 -2 7 -4 10 -4c4 0 8 1 16 5c23 12 61 43 85 63c8 7 15 10 18 10c4 0 7 -4 7 -8s-3 -7 -6 -11c-10 -10 -101 -94 -112 -104c-8 -7 -13 -10 -17 -10c-3 0 -7 3 -15 10c-8 6 -88 66 -101 76c-9 6 -12 8 -12 10c0 3 3 6 5 9z" />
    <glyph glyph-name="aacute" unicode="&#xe1;" horiz-adv-x="624" 
d="M82 91l207 532c11 28 15 33 21 33c9 0 12 -12 21 -31c16 -36 157 -387 211 -516c32 -76 56 -87 75 -93c13 -4 26 -5 35 -5c5 0 11 -2 11 -7s-10 -7 -20 -7c-13 0 -78 0 -139 2c-17 1 -31 1 -31 6c0 4 2 4 6 6c5 2 14 9 8 23l-79 195c-2 4 -3 5 -8 5h-203
c-4 0 -7 -2 -9 -7l-50 -136c-8 -21 -13 -42 -13 -57c0 -17 15 -23 30 -23h8c7 0 9 -3 9 -7c0 -5 -5 -7 -13 -7c-21 0 -69 3 -79 3c-9 0 -53 -3 -89 -3c-11 0 -17 2 -17 7c0 4 4 7 8 7c6 0 19 1 26 2c40 5 57 35 74 78zM209 269h178c4 0 4 2 3 6l-87 233c-5 13 -10 13 -15 0
l-82 -233c-1 -4 0 -6 3 -6zM440 818c7 -10 14 -24 25 -44c5 -9 0 -12 -4 -12c-3 0 -13 2 -30 0c-49 -5 -119 -28 -152 -42c-7 -3 -13 -5 -15 -5s-5 2 -5 6c0 3 2 5 7 8c36 25 129 81 136 85c17 10 23 13 28 13c3 0 5 -2 10 -9z" />
    <glyph glyph-name="acircumflex" unicode="&#xe2;" horiz-adv-x="624" 
d="M82 91l207 532c11 28 15 33 21 33c9 0 12 -12 21 -31c16 -36 157 -387 211 -516c32 -76 56 -87 75 -93c13 -4 26 -5 35 -5c5 0 11 -2 11 -7s-10 -7 -20 -7c-13 0 -78 0 -139 2c-17 1 -31 1 -31 6c0 4 2 4 6 6c5 2 14 9 8 23l-79 195c-2 4 -3 5 -8 5h-203
c-4 0 -7 -2 -9 -7l-50 -136c-8 -21 -13 -42 -13 -57c0 -17 15 -23 30 -23h8c7 0 9 -3 9 -7c0 -5 -5 -7 -13 -7c-21 0 -69 3 -79 3c-9 0 -53 -3 -89 -3c-11 0 -17 2 -17 7c0 4 4 7 8 7c6 0 19 1 26 2c40 5 57 35 74 78zM209 269h178c4 0 4 2 3 6l-87 233c-5 13 -10 13 -15 0
l-82 -233c-1 -4 0 -6 3 -6zM439 730l-21 -22c-4 -4 -6 -6 -9 -6s-5 1 -8 5c-20 22 -72 62 -84 69c-4 2 -7 4 -10 4c-4 0 -8 -1 -16 -5c-23 -12 -61 -43 -85 -63c-8 -7 -15 -10 -18 -10c-4 0 -7 4 -7 8s3 7 6 11c10 10 101 94 112 104c8 7 13 10 16 10c4 0 8 -4 16 -10
s88 -66 101 -76c9 -6 12 -8 12 -10c0 -3 -3 -6 -5 -9z" />
    <glyph glyph-name="adieresis" unicode="&#xe4;" horiz-adv-x="624" 
d="M82 91l207 532c11 28 15 33 21 33c9 0 12 -12 21 -31c16 -36 157 -387 211 -516c32 -76 56 -87 75 -93c13 -4 26 -5 35 -5c5 0 11 -2 11 -7s-10 -7 -20 -7c-13 0 -78 0 -139 2c-17 1 -31 1 -31 6c0 4 2 4 6 6c5 2 14 9 8 23l-79 195c-2 4 -3 5 -8 5h-203
c-4 0 -7 -2 -9 -7l-50 -136c-8 -21 -13 -42 -13 -57c0 -17 15 -23 30 -23h8c7 0 9 -3 9 -7c0 -5 -5 -7 -13 -7c-21 0 -69 3 -79 3c-9 0 -53 -3 -89 -3c-11 0 -17 2 -17 7c0 4 4 7 8 7c6 0 19 1 26 2c40 5 57 35 74 78zM209 269h178c4 0 4 2 3 6l-87 233c-5 13 -10 13 -15 0
l-82 -233c-1 -4 0 -6 3 -6zM412 715c-30 0 -42 24 -42 43c0 18 12 43 43 43c24 0 43 -15 43 -40c0 -26 -17 -46 -44 -46zM211 715c-30 0 -42 24 -42 43c0 18 12 43 43 43c24 0 43 -15 43 -40c0 -26 -17 -46 -44 -46z" />
    <glyph glyph-name="agrave" unicode="&#xe0;" horiz-adv-x="624" 
d="M82 91l207 532c11 28 15 33 21 33c9 0 12 -12 21 -31c16 -36 157 -387 211 -516c32 -76 56 -87 75 -93c13 -4 26 -5 35 -5c5 0 11 -2 11 -7s-10 -7 -20 -7c-13 0 -78 0 -139 2c-17 1 -31 1 -31 6c0 4 2 4 6 6c5 2 14 9 8 23l-79 195c-2 4 -3 5 -8 5h-203
c-4 0 -7 -2 -9 -7l-50 -136c-8 -21 -13 -42 -13 -57c0 -17 15 -23 30 -23h8c7 0 9 -3 9 -7c0 -5 -5 -7 -13 -7c-21 0 -69 3 -79 3c-9 0 -53 -3 -89 -3c-11 0 -17 2 -17 7c0 4 4 7 8 7c6 0 19 1 26 2c40 5 57 35 74 78zM209 269h178c4 0 4 2 3 6l-87 233c-5 13 -10 13 -15 0
l-82 -233c-1 -4 0 -6 3 -6zM363 715c-18 0 -165 53 -181 59c-21 8 -29 12 -29 17s4 6 11 8c21 6 48 14 60 19c8 3 12 5 16 5c5 0 6 -7 15 -16c8 -8 57 -47 98 -73c10 -7 19 -10 19 -14c0 -3 -4 -5 -9 -5z" />
    <glyph glyph-name="aring" unicode="&#xe5;" horiz-adv-x="624" 
d="M82 91l207 532c11 28 15 33 21 33c9 0 12 -12 21 -31c16 -36 157 -387 211 -516c32 -76 56 -87 75 -93c13 -4 26 -5 35 -5c5 0 11 -2 11 -7s-10 -7 -20 -7c-13 0 -78 0 -139 2c-17 1 -31 1 -31 6c0 4 2 4 6 6c5 2 14 9 8 23l-79 195c-2 4 -3 5 -8 5h-203
c-4 0 -7 -2 -9 -7l-50 -136c-8 -21 -13 -42 -13 -57c0 -17 15 -23 30 -23h8c7 0 9 -3 9 -7c0 -5 -5 -7 -13 -7c-21 0 -69 3 -79 3c-9 0 -53 -3 -89 -3c-11 0 -17 2 -17 7c0 4 4 7 8 7c6 0 19 1 26 2c40 5 57 35 74 78zM209 269h178c4 0 4 2 3 6l-87 233c-5 13 -10 13 -15 0
l-82 -233c-1 -4 0 -6 3 -6zM291 705c-50 0 -78 25 -78 59c0 45 49 86 118 86c51 0 82 -23 82 -57c1 -55 -64 -88 -122 -88zM307 729c33 0 59 23 59 51c0 24 -16 46 -52 46c-23 0 -57 -15 -57 -49c0 -30 26 -48 50 -48z" />
    <glyph glyph-name="atilde" unicode="&#xe3;" horiz-adv-x="624" 
d="M82 91l207 532c11 28 15 33 21 33c9 0 12 -12 21 -31c16 -36 157 -387 211 -516c32 -76 56 -87 75 -93c13 -4 26 -5 35 -5c5 0 11 -2 11 -7s-10 -7 -20 -7c-13 0 -78 0 -139 2c-17 1 -31 1 -31 6c0 4 2 4 6 6c5 2 14 9 8 23l-79 195c-2 4 -3 5 -8 5h-203
c-4 0 -7 -2 -9 -7l-50 -136c-8 -21 -13 -42 -13 -57c0 -17 15 -23 30 -23h8c7 0 9 -3 9 -7c0 -5 -5 -7 -13 -7c-21 0 -69 3 -79 3c-9 0 -53 -3 -89 -3c-11 0 -17 2 -17 7c0 4 4 7 8 7c6 0 19 1 26 2c40 5 57 35 74 78zM209 269h178c4 0 4 2 3 6l-87 233c-5 13 -10 13 -15 0
l-82 -233c-1 -4 0 -6 3 -6zM383 715c-33 0 -65 19 -79 26c-18 8 -37 23 -68 23c-35 0 -54 -28 -61 -36c-5 -6 -10 -9 -14 -9s-6 3 -6 6c0 5 3 9 7 15c14 22 54 71 86 71c24 0 53 -16 84 -31c14 -7 42 -17 58 -17c37 0 58 25 61 29c4 6 9 11 12 11c4 0 7 -3 7 -6
c0 -4 -1 -7 -4 -13c-8 -16 -52 -69 -83 -69z" />
    <glyph glyph-name="ccedilla" unicode="&#xe7;" horiz-adv-x="708" 
d="M418 -13c-20 -18 -52 -48 -59 -55c62 -6 100 -30 100 -71c0 -39 -37 -68 -71 -82c-27 -12 -59 -18 -78 -18c-7 0 -13 3 -13 8c0 9 9 10 20 11c35 4 74 25 74 61c0 29 -13 56 -72 73c-11 3 -15 5 -15 9c0 3 4 7 13 14l64 52c-94 10 -163 40 -219 88
c-86 74 -107 171 -107 252c0 57 21 156 99 232c53 51 133 91 268 91c35 0 85 -2 128 -9c33 -5 61 -13 90 -14c9 0 11 -4 11 -9c0 -7 -2 -17 -4 -48c-1 -28 -1 -75 -2 -87c-1 -13 -5 -18 -10 -18c-6 0 -7 6 -7 18c0 33 -14 67 -37 85c-31 26 -95 47 -173 47
c-113 0 -167 -30 -198 -59c-65 -60 -79 -136 -79 -222c0 -163 129 -308 317 -308c66 0 110 5 145 40c19 19 31 55 34 71c2 9 3 12 9 12c4 0 8 -6 8 -12s-12 -80 -21 -109c-5 -16 -7 -19 -22 -25c-36 -14 -102 -19 -159 -19c-12 0 -23 0 -34 1z" />
    <glyph glyph-name="eacute" unicode="&#xe9;" horiz-adv-x="551" 
d="M155 244v150c0 132 0 156 -2 183c-2 29 -7 43 -36 47c-7 1 -22 2 -30 2c-3 0 -7 4 -7 7c0 5 4 7 14 7c40 0 97 -2 102 -2c6 0 190 -1 210 0c17 1 33 4 40 5c4 1 8 4 12 4c3 0 4 -4 4 -8c0 -6 -5 -16 -7 -40c-1 -8 -3 -46 -5 -56c-1 -4 -4 -9 -8 -9c-5 0 -7 4 -7 11
c0 6 -1 20 -5 30c-6 14 -15 20 -63 26c-15 2 -117 3 -127 3c-4 0 -5 -3 -5 -9v-231c0 -6 0 -9 5 -9c11 0 127 0 147 2c21 2 34 3 43 12c6 6 10 11 13 11s5 -2 5 -7s-5 -19 -7 -47c-2 -17 -4 -49 -4 -55c0 -7 -2 -16 -8 -16c-4 0 -6 3 -6 8c0 8 0 17 -4 28
c-3 12 -11 22 -45 26c-24 3 -118 4 -133 4c-5 0 -6 -3 -6 -6v-71c0 -29 -1 -128 0 -145c2 -57 18 -68 105 -68c23 0 65 0 88 9c23 10 35 25 40 59c2 10 4 13 9 13s6 -7 6 -13s-7 -64 -12 -82c-6 -22 -15 -22 -49 -22c-66 0 -117 2 -153 3c-37 2 -60 2 -73 2
c-2 0 -19 0 -38 -1c-17 -1 -37 -2 -51 -2c-9 0 -14 2 -14 7c0 3 2 7 7 7c8 0 19 3 27 4c17 3 19 20 23 45c5 35 5 102 5 184zM403 818c7 -10 14 -24 25 -44c5 -9 0 -12 -4 -12c-3 0 -13 2 -30 0c-49 -5 -119 -28 -152 -42c-7 -3 -13 -5 -15 -5s-5 2 -5 6c0 3 2 5 7 8
c36 25 129 81 136 85c17 10 23 13 28 13c3 0 5 -2 10 -9z" />
    <glyph glyph-name="ecircumflex" unicode="&#xea;" horiz-adv-x="551" 
d="M155 244v150c0 132 0 156 -2 183c-2 29 -7 43 -36 47c-7 1 -22 2 -30 2c-3 0 -7 4 -7 7c0 5 4 7 14 7c40 0 97 -2 102 -2c6 0 190 -1 210 0c17 1 33 4 40 5c4 1 8 4 12 4c3 0 4 -4 4 -8c0 -6 -5 -16 -7 -40c-1 -8 -3 -46 -5 -56c-1 -4 -4 -9 -8 -9c-5 0 -7 4 -7 11
c0 6 -1 20 -5 30c-6 14 -15 20 -63 26c-15 2 -117 3 -127 3c-4 0 -5 -3 -5 -9v-231c0 -6 0 -9 5 -9c11 0 127 0 147 2c21 2 34 3 43 12c6 6 10 11 13 11s5 -2 5 -7s-5 -19 -7 -47c-2 -17 -4 -49 -4 -55c0 -7 -2 -16 -8 -16c-4 0 -6 3 -6 8c0 8 0 17 -4 28
c-3 12 -11 22 -45 26c-24 3 -118 4 -133 4c-5 0 -6 -3 -6 -6v-71c0 -29 -1 -128 0 -145c2 -57 18 -68 105 -68c23 0 65 0 88 9c23 10 35 25 40 59c2 10 4 13 9 13s6 -7 6 -13s-7 -64 -12 -82c-6 -22 -15 -22 -49 -22c-66 0 -117 2 -153 3c-37 2 -60 2 -73 2
c-2 0 -19 0 -38 -1c-17 -1 -37 -2 -51 -2c-9 0 -14 2 -14 7c0 3 2 7 7 7c8 0 19 3 27 4c17 3 19 20 23 45c5 35 5 102 5 184zM412 730l-21 -22c-4 -4 -6 -6 -9 -6s-5 1 -8 5c-20 22 -72 62 -84 69c-4 2 -7 4 -10 4c-4 0 -8 -1 -16 -5c-23 -12 -61 -43 -85 -63
c-8 -7 -15 -10 -18 -10c-4 0 -7 4 -7 8s3 7 6 11c10 10 101 94 112 104c8 7 13 10 16 10c4 0 8 -4 16 -10s88 -66 101 -76c9 -6 12 -8 12 -10c0 -3 -3 -6 -5 -9z" />
    <glyph glyph-name="edieresis" unicode="&#xeb;" horiz-adv-x="551" 
d="M155 244v150c0 132 0 156 -2 183c-2 29 -7 43 -36 47c-7 1 -22 2 -30 2c-3 0 -7 4 -7 7c0 5 4 7 14 7c40 0 97 -2 102 -2c6 0 190 -1 210 0c17 1 33 4 40 5c4 1 8 4 12 4c3 0 4 -4 4 -8c0 -6 -5 -16 -7 -40c-1 -8 -3 -46 -5 -56c-1 -4 -4 -9 -8 -9c-5 0 -7 4 -7 11
c0 6 -1 20 -5 30c-6 14 -15 20 -63 26c-15 2 -117 3 -127 3c-4 0 -5 -3 -5 -9v-231c0 -6 0 -9 5 -9c11 0 127 0 147 2c21 2 34 3 43 12c6 6 10 11 13 11s5 -2 5 -7s-5 -19 -7 -47c-2 -17 -4 -49 -4 -55c0 -7 -2 -16 -8 -16c-4 0 -6 3 -6 8c0 8 0 17 -4 28
c-3 12 -11 22 -45 26c-24 3 -118 4 -133 4c-5 0 -6 -3 -6 -6v-71c0 -29 -1 -128 0 -145c2 -57 18 -68 105 -68c23 0 65 0 88 9c23 10 35 25 40 59c2 10 4 13 9 13s6 -7 6 -13s-7 -64 -12 -82c-6 -22 -15 -22 -49 -22c-66 0 -117 2 -153 3c-37 2 -60 2 -73 2
c-2 0 -19 0 -38 -1c-17 -1 -37 -2 -51 -2c-9 0 -14 2 -14 7c0 3 2 7 7 7c8 0 19 3 27 4c17 3 19 20 23 45c5 35 5 102 5 184zM375 715c-30 0 -42 24 -42 43c0 18 12 43 43 43c24 0 43 -15 43 -40c0 -26 -17 -46 -44 -46zM174 715c-30 0 -42 24 -42 43c0 18 12 43 43 43
c24 0 43 -15 43 -40c0 -26 -17 -46 -44 -46z" />
    <glyph glyph-name="egrave" unicode="&#xe8;" horiz-adv-x="551" 
d="M155 244v150c0 132 0 156 -2 183c-2 29 -7 43 -36 47c-7 1 -22 2 -30 2c-3 0 -7 4 -7 7c0 5 4 7 14 7c40 0 97 -2 102 -2c6 0 190 -1 210 0c17 1 33 4 40 5c4 1 8 4 12 4c3 0 4 -4 4 -8c0 -6 -5 -16 -7 -40c-1 -8 -3 -46 -5 -56c-1 -4 -4 -9 -8 -9c-5 0 -7 4 -7 11
c0 6 -1 20 -5 30c-6 14 -15 20 -63 26c-15 2 -117 3 -127 3c-4 0 -5 -3 -5 -9v-231c0 -6 0 -9 5 -9c11 0 127 0 147 2c21 2 34 3 43 12c6 6 10 11 13 11s5 -2 5 -7s-5 -19 -7 -47c-2 -17 -4 -49 -4 -55c0 -7 -2 -16 -8 -16c-4 0 -6 3 -6 8c0 8 0 17 -4 28
c-3 12 -11 22 -45 26c-24 3 -118 4 -133 4c-5 0 -6 -3 -6 -6v-71c0 -29 -1 -128 0 -145c2 -57 18 -68 105 -68c23 0 65 0 88 9c23 10 35 25 40 59c2 10 4 13 9 13s6 -7 6 -13s-7 -64 -12 -82c-6 -22 -15 -22 -49 -22c-66 0 -117 2 -153 3c-37 2 -60 2 -73 2
c-2 0 -19 0 -38 -1c-17 -1 -37 -2 -51 -2c-9 0 -14 2 -14 7c0 3 2 7 7 7c8 0 19 3 27 4c17 3 19 20 23 45c5 35 5 102 5 184zM346 715c-18 0 -165 53 -181 59c-21 8 -29 12 -29 17s4 6 11 8c21 6 48 14 60 19c8 3 12 5 16 5c5 0 6 -7 15 -16c8 -8 57 -47 98 -73
c10 -7 19 -10 19 -14c0 -3 -4 -5 -9 -5z" />
    <glyph glyph-name="iacute" unicode="&#xed;" horiz-adv-x="389" 
d="M235 394v-150c0 -82 0 -149 4 -184c3 -25 6 -41 32 -45c13 -2 32 -4 40 -4c5 0 7 -4 7 -7c0 -4 -4 -7 -14 -7c-49 0 -106 3 -110 3c-5 0 -60 -3 -87 -3c-9 0 -14 2 -14 7c0 3 2 7 7 7c8 0 19 2 27 4c17 4 20 20 23 45c4 35 5 102 5 184v150c0 132 0 156 -2 183
c-2 29 -9 42 -28 46c-10 2 -21 3 -27 3c-4 0 -7 4 -7 7c0 5 4 7 14 7c29 0 84 -2 89 -2c4 0 61 2 88 2c10 0 14 -2 14 -7c0 -3 -4 -7 -7 -7c-6 0 -12 0 -22 -2c-24 -5 -29 -17 -31 -47c-1 -27 -1 -51 -1 -183zM322 818c7 -10 14 -24 25 -44c5 -9 0 -12 -4 -12
c-3 0 -13 2 -30 0c-49 -5 -119 -28 -152 -42c-7 -3 -13 -5 -15 -5s-5 2 -5 6c0 3 2 5 7 8c36 25 129 81 136 85c17 10 23 13 28 13c3 0 5 -2 10 -9z" />
    <glyph glyph-name="icircumflex" unicode="&#xee;" horiz-adv-x="389" 
d="M235 394v-150c0 -82 0 -149 4 -184c3 -25 6 -41 32 -45c13 -2 32 -4 40 -4c5 0 7 -4 7 -7c0 -4 -4 -7 -14 -7c-49 0 -106 3 -110 3c-5 0 -60 -3 -87 -3c-9 0 -14 2 -14 7c0 3 2 7 7 7c8 0 19 2 27 4c17 4 20 20 23 45c4 35 5 102 5 184v150c0 132 0 156 -2 183
c-2 29 -9 42 -28 46c-10 2 -21 3 -27 3c-4 0 -7 4 -7 7c0 5 4 7 14 7c29 0 84 -2 89 -2c4 0 61 2 88 2c10 0 14 -2 14 -7c0 -3 -4 -7 -7 -7c-6 0 -12 0 -22 -2c-24 -5 -29 -17 -31 -47c-1 -27 -1 -51 -1 -183zM321 730l-21 -22c-4 -4 -6 -6 -9 -6s-5 1 -8 5
c-20 22 -72 62 -84 69c-4 2 -7 4 -10 4c-4 0 -8 -1 -16 -5c-23 -12 -61 -43 -85 -63c-8 -7 -15 -10 -18 -10c-4 0 -7 4 -7 8s3 7 6 11c10 10 101 94 112 104c8 7 13 10 16 10c4 0 8 -4 16 -10s88 -66 101 -76c9 -6 12 -8 12 -10c0 -3 -3 -6 -5 -9z" />
    <glyph glyph-name="idieresis" unicode="&#xef;" horiz-adv-x="389" 
d="M235 394v-150c0 -82 0 -149 4 -184c3 -25 6 -41 32 -45c13 -2 32 -4 40 -4c5 0 7 -4 7 -7c0 -4 -4 -7 -14 -7c-49 0 -106 3 -110 3c-5 0 -60 -3 -87 -3c-9 0 -14 2 -14 7c0 3 2 7 7 7c8 0 19 2 27 4c17 4 20 20 23 45c4 35 5 102 5 184v150c0 132 0 156 -2 183
c-2 29 -9 42 -28 46c-10 2 -21 3 -27 3c-4 0 -7 4 -7 7c0 5 4 7 14 7c29 0 84 -2 89 -2c4 0 61 2 88 2c10 0 14 -2 14 -7c0 -3 -4 -7 -7 -7c-6 0 -12 0 -22 -2c-24 -5 -29 -17 -31 -47c-1 -27 -1 -51 -1 -183zM294 715c-30 0 -42 24 -42 43c0 18 12 43 43 43
c24 0 43 -15 43 -40c0 -26 -17 -46 -44 -46zM93 715c-30 0 -42 24 -42 43c0 18 12 43 43 43c24 0 43 -15 43 -40c0 -26 -17 -46 -44 -46z" />
    <glyph glyph-name="igrave" unicode="&#xec;" horiz-adv-x="389" 
d="M235 394v-150c0 -82 0 -149 4 -184c3 -25 6 -41 32 -45c13 -2 32 -4 40 -4c5 0 7 -4 7 -7c0 -4 -4 -7 -14 -7c-49 0 -106 3 -110 3c-5 0 -60 -3 -87 -3c-9 0 -14 2 -14 7c0 3 2 7 7 7c8 0 19 2 27 4c17 4 20 20 23 45c4 35 5 102 5 184v150c0 132 0 156 -2 183
c-2 29 -9 42 -28 46c-10 2 -21 3 -27 3c-4 0 -7 4 -7 7c0 5 4 7 14 7c29 0 84 -2 89 -2c4 0 61 2 88 2c10 0 14 -2 14 -7c0 -3 -4 -7 -7 -7c-6 0 -12 0 -22 -2c-24 -5 -29 -17 -31 -47c-1 -27 -1 -51 -1 -183zM245 715c-18 0 -165 53 -181 59c-21 8 -29 12 -29 17s4 6 11 8
c21 6 48 14 60 19c8 3 12 5 16 5c5 0 6 -7 15 -16c8 -8 57 -47 98 -73c10 -7 19 -10 19 -14c0 -3 -4 -5 -9 -5z" />
    <glyph glyph-name="ntilde" unicode="&#xf1;" horiz-adv-x="833" 
d="M182 514l10 -401c2 -70 10 -91 34 -97c16 -4 36 -5 44 -5c4 0 7 -3 7 -7c0 -5 -6 -7 -16 -7c-50 0 -85 3 -93 3s-45 -3 -85 -3c-9 0 -14 1 -14 7c0 4 3 7 7 7c7 0 23 1 36 5c22 6 25 29 25 106v487c0 34 5 43 12 43c10 0 25 -17 34 -26c14 -14 142 -150 278 -290
c87 -90 181 -191 208 -219l-9 426c-1 55 -6 74 -33 79c-16 3 -36 4 -43 4c-6 0 -7 5 -7 8c0 5 7 6 17 6c40 0 82 -2 92 -2s39 2 75 2c9 0 16 -1 16 -6c0 -3 -4 -8 -10 -8c-4 0 -11 0 -21 -2c-29 -6 -31 -23 -31 -74l-2 -498c0 -56 -1 -61 -7 -61c-9 0 -18 7 -67 52
c-9 8 -136 133 -229 230c-102 107 -201 211 -228 241zM487 715c-33 0 -65 19 -79 26c-18 8 -37 23 -68 23c-35 0 -54 -28 -61 -36c-5 -6 -10 -9 -14 -9s-6 3 -6 6c0 5 3 9 7 15c14 22 54 71 86 71c24 0 53 -16 84 -31c14 -7 42 -17 58 -17c37 0 58 25 61 29c4 6 9 11 12 11
c4 0 7 -3 7 -6c0 -4 -1 -7 -4 -13c-8 -16 -52 -69 -83 -69z" />
    <glyph glyph-name="oacute" unicode="&#xf3;" horiz-adv-x="808" 
d="M55 320c0 137 106 332 349 332c198 0 348 -121 348 -319c0 -190 -141 -347 -353 -347c-241 0 -344 181 -344 334zM146 343c0 -198 119 -322 278 -322c79 0 238 42 238 288c0 204 -124 311 -263 311c-147 0 -253 -92 -253 -277zM532 818c7 -10 14 -24 25 -44
c5 -9 0 -12 -4 -12c-3 0 -13 2 -30 0c-49 -5 -119 -28 -152 -42c-7 -3 -13 -5 -15 -5s-5 2 -5 6c0 3 2 5 7 8c36 25 129 81 136 85c17 10 23 13 28 13c3 0 5 -2 10 -9z" />
    <glyph glyph-name="ocircumflex" unicode="&#xf4;" horiz-adv-x="808" 
d="M55 320c0 137 106 332 349 332c198 0 348 -121 348 -319c0 -190 -141 -347 -353 -347c-241 0 -344 181 -344 334zM146 343c0 -198 119 -322 278 -322c79 0 238 42 238 288c0 204 -124 311 -263 311c-147 0 -253 -92 -253 -277zM531 730l-21 -22c-4 -4 -6 -6 -9 -6
s-5 1 -8 5c-20 22 -72 62 -84 69c-4 2 -7 4 -10 4c-4 0 -8 -1 -16 -5c-23 -12 -61 -43 -85 -63c-8 -7 -15 -10 -18 -10c-4 0 -7 4 -7 8s3 7 6 11c10 10 101 94 112 104c8 7 13 10 16 10c4 0 8 -4 16 -10s88 -66 101 -76c9 -6 12 -8 12 -10c0 -3 -3 -6 -5 -9z" />
    <glyph glyph-name="odieresis" unicode="&#xf6;" horiz-adv-x="808" 
d="M55 320c0 137 106 332 349 332c198 0 348 -121 348 -319c0 -190 -141 -347 -353 -347c-241 0 -344 181 -344 334zM146 343c0 -198 119 -322 278 -322c79 0 238 42 238 288c0 204 -124 311 -263 311c-147 0 -253 -92 -253 -277zM504 715c-30 0 -42 24 -42 43
c0 18 12 43 43 43c24 0 43 -15 43 -40c0 -26 -17 -46 -44 -46zM303 715c-30 0 -42 24 -42 43c0 18 12 43 43 43c24 0 43 -15 43 -40c0 -26 -17 -46 -44 -46z" />
    <glyph glyph-name="ograve" unicode="&#xf2;" horiz-adv-x="808" 
d="M55 320c0 137 106 332 349 332c198 0 348 -121 348 -319c0 -190 -141 -347 -353 -347c-241 0 -344 181 -344 334zM146 343c0 -198 119 -322 278 -322c79 0 238 42 238 288c0 204 -124 311 -263 311c-147 0 -253 -92 -253 -277zM455 715c-18 0 -165 53 -181 59
c-21 8 -29 12 -29 17s4 6 11 8c21 6 48 14 60 19c8 3 12 5 16 5c5 0 6 -7 15 -16c8 -8 57 -47 98 -73c10 -7 19 -10 19 -14c0 -3 -4 -5 -9 -5z" />
    <glyph glyph-name="otilde" unicode="&#xf5;" horiz-adv-x="808" 
d="M55 320c0 137 106 332 349 332c198 0 348 -121 348 -319c0 -190 -141 -347 -353 -347c-241 0 -344 181 -344 334zM146 343c0 -198 119 -322 278 -322c79 0 238 42 238 288c0 204 -124 311 -263 311c-147 0 -253 -92 -253 -277zM484 715c-33 0 -65 19 -79 26
c-18 8 -37 23 -68 23c-35 0 -54 -28 -61 -36c-5 -6 -10 -9 -14 -9s-6 3 -6 6c0 5 3 9 7 15c14 22 54 71 86 71c24 0 53 -16 84 -31c14 -7 42 -17 58 -17c37 0 58 25 61 29c4 6 9 11 12 11c4 0 7 -3 7 -6c0 -4 -1 -7 -4 -13c-8 -16 -52 -69 -83 -69z" />
    <glyph glyph-name="scaron" unicode="&#x161;" horiz-adv-x="524" 
d="M209 -14c-41 0 -92 6 -128 23c-12 6 -13 9 -13 32c0 42 4 76 5 90c0 9 2 14 7 14s8 -3 8 -10s0 -19 3 -31c14 -62 80 -84 139 -84c87 0 132 49 132 113c0 61 -33 90 -111 148l-40 30c-95 71 -126 123 -126 182c0 100 79 160 195 160c35 0 70 -5 91 -10c17 -4 24 -4 31 -4
s9 -1 9 -6c0 -4 -4 -32 -4 -90c0 -13 -1 -19 -7 -19s-7 4 -8 11c-1 10 -8 33 -13 42c-6 10 -35 42 -114 42c-64 0 -117 -32 -117 -92c0 -54 27 -85 114 -144l25 -17c107 -73 144 -132 144 -205c0 -50 -19 -104 -82 -145c-37 -24 -92 -30 -140 -30zM145 805l21 22
c4 4 6 6 9 6s5 -1 8 -5c20 -22 71 -63 84 -69c4 -2 7 -4 10 -4c4 0 8 1 16 5c23 12 61 43 85 63c8 7 15 10 18 10c4 0 7 -4 7 -8s-3 -7 -6 -11c-10 -10 -101 -94 -112 -104c-8 -7 -13 -10 -17 -10c-3 0 -7 3 -15 10c-8 6 -88 66 -101 76c-9 6 -12 8 -12 10c0 3 3 6 5 9z" />
    <glyph glyph-name="uacute" unicode="&#xfa;" horiz-adv-x="732" 
d="M110 269v125c0 132 0 156 -2 183s-7 43 -36 47c-7 1 -22 2 -30 2c-3 0 -7 4 -7 7c0 5 4 7 14 7c40 0 93 -2 101 -2s63 2 89 2c10 0 15 -2 15 -7c0 -3 -4 -7 -8 -7c-6 0 -11 0 -22 -2c-23 -4 -28 -19 -30 -47c-2 -27 -2 -51 -2 -183v-119c0 -123 27 -174 65 -208
c43 -39 81 -46 131 -46c54 0 106 24 136 60c41 49 50 119 50 206v107c0 132 -1 156 -2 183s-6 43 -35 47c-7 1 -22 2 -30 2c-4 0 -7 4 -7 7c0 5 4 7 14 7c39 0 90 -2 95 -2c6 0 48 2 74 2c10 0 14 -2 14 -7c0 -3 -3 -7 -7 -7c-6 0 -11 0 -22 -2c-24 -5 -29 -19 -31 -47
c-2 -27 -1 -51 -1 -183v-91c0 -92 -12 -195 -82 -255c-64 -55 -132 -62 -184 -62c-29 0 -121 2 -183 60c-43 40 -77 99 -77 223zM494 818c7 -10 14 -24 25 -44c5 -9 0 -12 -4 -12c-3 0 -13 2 -30 0c-49 -5 -119 -28 -152 -42c-7 -3 -13 -5 -15 -5s-5 2 -5 6c0 3 2 5 7 8
c36 25 129 81 136 85c17 10 23 13 28 13c3 0 5 -2 10 -9z" />
    <glyph glyph-name="ucircumflex" unicode="&#xfb;" horiz-adv-x="732" 
d="M110 269v125c0 132 0 156 -2 183s-7 43 -36 47c-7 1 -22 2 -30 2c-3 0 -7 4 -7 7c0 5 4 7 14 7c40 0 93 -2 101 -2s63 2 89 2c10 0 15 -2 15 -7c0 -3 -4 -7 -8 -7c-6 0 -11 0 -22 -2c-23 -4 -28 -19 -30 -47c-2 -27 -2 -51 -2 -183v-119c0 -123 27 -174 65 -208
c43 -39 81 -46 131 -46c54 0 106 24 136 60c41 49 50 119 50 206v107c0 132 -1 156 -2 183s-6 43 -35 47c-7 1 -22 2 -30 2c-4 0 -7 4 -7 7c0 5 4 7 14 7c39 0 90 -2 95 -2c6 0 48 2 74 2c10 0 14 -2 14 -7c0 -3 -3 -7 -7 -7c-6 0 -11 0 -22 -2c-24 -5 -29 -19 -31 -47
c-2 -27 -1 -51 -1 -183v-91c0 -92 -12 -195 -82 -255c-64 -55 -132 -62 -184 -62c-29 0 -121 2 -183 60c-43 40 -77 99 -77 223zM493 730l-21 -22c-4 -4 -6 -6 -9 -6s-5 1 -8 5c-20 22 -72 62 -84 69c-4 2 -7 4 -10 4c-4 0 -8 -1 -16 -5c-23 -12 -61 -43 -85 -63
c-8 -7 -15 -10 -18 -10c-4 0 -7 4 -7 8s3 7 6 11c10 10 101 94 112 104c8 7 13 10 16 10c4 0 8 -4 16 -10s88 -66 101 -76c9 -6 12 -8 12 -10c0 -3 -3 -6 -5 -9z" />
    <glyph glyph-name="udieresis" unicode="&#xfc;" horiz-adv-x="732" 
d="M110 269v125c0 132 0 156 -2 183s-7 43 -36 47c-7 1 -22 2 -30 2c-3 0 -7 4 -7 7c0 5 4 7 14 7c40 0 93 -2 101 -2s63 2 89 2c10 0 15 -2 15 -7c0 -3 -4 -7 -8 -7c-6 0 -11 0 -22 -2c-23 -4 -28 -19 -30 -47c-2 -27 -2 -51 -2 -183v-119c0 -123 27 -174 65 -208
c43 -39 81 -46 131 -46c54 0 106 24 136 60c41 49 50 119 50 206v107c0 132 -1 156 -2 183s-6 43 -35 47c-7 1 -22 2 -30 2c-4 0 -7 4 -7 7c0 5 4 7 14 7c39 0 90 -2 95 -2c6 0 48 2 74 2c10 0 14 -2 14 -7c0 -3 -3 -7 -7 -7c-6 0 -11 0 -22 -2c-24 -5 -29 -19 -31 -47
c-2 -27 -1 -51 -1 -183v-91c0 -92 -12 -195 -82 -255c-64 -55 -132 -62 -184 -62c-29 0 -121 2 -183 60c-43 40 -77 99 -77 223zM485 715c-30 0 -42 24 -42 43c0 18 12 43 43 43c24 0 43 -15 43 -40c0 -26 -17 -46 -44 -46zM284 715c-30 0 -42 24 -42 43c0 18 12 43 43 43
c24 0 43 -15 43 -40c0 -26 -17 -46 -44 -46z" />
    <glyph glyph-name="ugrave" unicode="&#xf9;" horiz-adv-x="732" 
d="M110 269v125c0 132 0 156 -2 183s-7 43 -36 47c-7 1 -22 2 -30 2c-3 0 -7 4 -7 7c0 5 4 7 14 7c40 0 93 -2 101 -2s63 2 89 2c10 0 15 -2 15 -7c0 -3 -4 -7 -8 -7c-6 0 -11 0 -22 -2c-23 -4 -28 -19 -30 -47c-2 -27 -2 -51 -2 -183v-119c0 -123 27 -174 65 -208
c43 -39 81 -46 131 -46c54 0 106 24 136 60c41 49 50 119 50 206v107c0 132 -1 156 -2 183s-6 43 -35 47c-7 1 -22 2 -30 2c-4 0 -7 4 -7 7c0 5 4 7 14 7c39 0 90 -2 95 -2c6 0 48 2 74 2c10 0 14 -2 14 -7c0 -3 -3 -7 -7 -7c-6 0 -11 0 -22 -2c-24 -5 -29 -19 -31 -47
c-2 -27 -1 -51 -1 -183v-91c0 -92 -12 -195 -82 -255c-64 -55 -132 -62 -184 -62c-29 0 -121 2 -183 60c-43 40 -77 99 -77 223zM436 715c-18 0 -165 53 -181 59c-21 8 -29 12 -29 17s4 6 11 8c21 6 48 14 60 19c8 3 12 5 16 5c5 0 6 -7 15 -16c8 -8 57 -47 98 -73
c10 -7 19 -10 19 -14c0 -3 -4 -5 -9 -5z" />
    <glyph glyph-name="yacute" unicode="&#xfd;" horiz-adv-x="576" 
d="M255 145v73c0 46 -6 63 -19 87c-7 13 -126 202 -156 247c-21 32 -42 51 -58 62c-13 8 -30 12 -37 12c-5 0 -9 4 -9 8s3 6 11 6c17 0 83 -2 87 -2c6 0 42 2 76 2c10 0 12 -2 12 -6c0 -3 -6 -6 -14 -9c-7 -3 -11 -7 -11 -14c0 -12 6 -22 12 -33l160 -265
c18 36 128 218 144 246c11 19 15 33 15 44c0 12 -4 19 -14 22c-8 2 -13 6 -13 10c0 3 5 5 14 5c23 0 54 -2 61 -2c6 0 69 2 86 2c6 0 11 -2 11 -5c0 -4 -4 -9 -11 -9c-10 0 -27 -3 -41 -11c-17 -10 -25 -19 -44 -42c-29 -34 -153 -234 -171 -270c-15 -30 -11 -57 -11 -85
v-73c0 -14 0 -50 3 -85c2 -25 8 -41 34 -45c12 -2 32 -4 40 -4c5 0 7 -4 7 -7c0 -4 -5 -7 -14 -7c-49 0 -106 3 -111 3c-4 0 -60 -3 -86 -3c-10 0 -14 2 -14 7c0 3 2 7 7 7c8 0 18 2 26 4c18 4 24 20 26 45c2 35 2 71 2 85zM416 818c7 -10 14 -24 25 -44c5 -9 0 -12 -4 -12
c-3 0 -13 2 -30 0c-49 -5 -119 -28 -152 -42c-7 -3 -13 -5 -15 -5s-5 2 -5 6c0 3 2 5 7 8c36 25 129 81 136 85c17 10 23 13 28 13c3 0 5 -2 10 -9z" />
    <glyph glyph-name="ydieresis" unicode="&#xff;" horiz-adv-x="576" 
d="M255 145v73c0 46 -6 63 -19 87c-7 13 -126 202 -156 247c-21 32 -42 51 -58 62c-13 8 -30 12 -37 12c-5 0 -9 4 -9 8s3 6 11 6c17 0 83 -2 87 -2c6 0 42 2 76 2c10 0 12 -2 12 -6c0 -3 -6 -6 -14 -9c-7 -3 -11 -7 -11 -14c0 -12 6 -22 12 -33l160 -265
c18 36 128 218 144 246c11 19 15 33 15 44c0 12 -4 19 -14 22c-8 2 -13 6 -13 10c0 3 5 5 14 5c23 0 54 -2 61 -2c6 0 69 2 86 2c6 0 11 -2 11 -5c0 -4 -4 -9 -11 -9c-10 0 -27 -3 -41 -11c-17 -10 -25 -19 -44 -42c-29 -34 -153 -234 -171 -270c-15 -30 -11 -57 -11 -85
v-73c0 -14 0 -50 3 -85c2 -25 8 -41 34 -45c12 -2 32 -4 40 -4c5 0 7 -4 7 -7c0 -4 -5 -7 -14 -7c-49 0 -106 3 -111 3c-4 0 -60 -3 -86 -3c-10 0 -14 2 -14 7c0 3 2 7 7 7c8 0 18 2 26 4c18 4 24 20 26 45c2 35 2 71 2 85zM397 715c-30 0 -42 24 -42 43c0 18 12 43 43 43
c24 0 43 -15 43 -40c0 -26 -17 -46 -44 -46zM196 715c-30 0 -42 24 -42 43c0 18 12 43 43 43c24 0 43 -15 43 -40c0 -26 -17 -46 -44 -46z" />
    <glyph glyph-name="zcaron" unicode="&#x17e;" horiz-adv-x="609" 
d="M172 37h234c93 0 117 15 137 39c9 11 15 34 18 46c2 8 5 13 10 13s7 -3 7 -19c0 -27 -12 -77 -18 -98c-5 -21 -6 -22 -26 -22c-147 0 -296 4 -450 4c-10 0 -16 1 -16 7c0 4 1 10 12 26c132 191 262 380 383 569h-186c-45 0 -97 1 -125 -14c-31 -16 -47 -47 -50 -67
c-2 -13 -7 -15 -12 -15c-4 0 -5 4 -5 11c0 10 13 87 18 113c1 12 3 16 8 16c8 0 14 -5 37 -6c84 -3 126 -2 154 -2h246c13 0 18 -2 18 -7c0 -4 -1 -10 -5 -15c-128 -196 -256 -386 -389 -579zM198 805l21 22c4 4 6 6 9 6s5 -1 8 -5c20 -22 71 -63 84 -69c4 -2 7 -4 10 -4
c4 0 8 1 16 5c23 12 61 43 85 63c8 7 15 10 18 10c4 0 7 -4 7 -8s-3 -7 -6 -11c-10 -10 -101 -94 -112 -104c-8 -7 -13 -10 -17 -10c-3 0 -7 3 -15 10c-8 6 -88 66 -101 76c-9 6 -12 8 -12 10c0 3 3 6 5 9z" />
    <glyph glyph-name="zero.slash" horiz-adv-x="571" 
d="M44 352c0 255 102 415 247 415c77 0 119 -35 158 -86c24 37 43 67 54 85c2 4 6 6 13 1l19 -14c5 -4 5 -5 2 -10l-65 -97c42 -74 58 -170 58 -248c0 -231 -89 -415 -255 -415c-70 0 -118 43 -150 87c-21 -31 -40 -59 -57 -85c-1 -3 -8 -1 -8 -1l-21 12c-5 3 -6 5 -5 9
c21 31 44 65 68 100c-41 74 -58 169 -58 247zM166 135c30 -68 67 -115 129 -115c97 0 156 129 156 335c0 69 -10 151 -30 215c-94 -141 -177 -308 -255 -435zM123 393c0 -70 9 -152 28 -215c97 144 176 320 254 438c-30 69 -70 114 -134 114c-85 0 -148 -124 -148 -337z" />
    <glyph glyph-name="i.dot" unicode="&#xe004;" horiz-adv-x="389" 
d="M235 394v-150c0 -82 0 -149 4 -184c3 -25 6 -41 32 -45c13 -2 32 -4 40 -4c5 0 7 -4 7 -7c0 -4 -4 -7 -14 -7c-49 0 -106 3 -110 3c-5 0 -60 -3 -87 -3c-9 0 -14 2 -14 7c0 3 2 7 7 7c8 0 19 2 27 4c17 4 20 20 23 45c4 35 5 102 5 184v150c0 132 0 156 -2 183
c-2 29 -9 42 -28 46c-10 2 -21 3 -27 3c-4 0 -7 4 -7 7c0 5 4 7 14 7c29 0 84 -2 89 -2c4 0 61 2 88 2c10 0 14 -2 14 -7c0 -3 -4 -7 -7 -7c-6 0 -12 0 -22 -2c-24 -5 -29 -17 -31 -47c-1 -27 -1 -51 -1 -183zM194 715c-36 0 -51 28 -51 51c0 22 15 52 51 52
c29 0 52 -19 52 -49s-21 -54 -52 -54z" />
    <glyph glyph-name="ampersand.sc" unicode="&#xf726;" horiz-adv-x="713" 
d="M270 -14c-161 0 -224 113 -224 187c0 99 69 166 141 205c-34 44 -45 80 -45 118c0 67 74 156 197 156c47 0 87 -8 112 -21c11 -6 12 -12 12 -22c0 -26 -4 -84 -7 -97s-5 -15 -9 -15c-5 0 -5 3 -5 16c0 22 -8 49 -31 71c-20 20 -50 36 -90 36c-55 0 -113 -28 -113 -108
c0 -66 46 -122 142 -218c31 -31 144 -129 173 -152c26 32 47 89 47 141c0 13 -3 29 -17 42c-12 11 -31 13 -45 13c-6 0 -11 2 -11 6s8 6 15 6c22 0 58 0 110 -6c14 -1 16 -8 16 -17c0 -69 -51 -154 -91 -200c61 -48 101 -70 127 -84c29 -16 77 -34 110 -34c8 0 13 -1 13 -6
c0 -3 -8 -6 -16 -6h-90c-68 0 -90 6 -191 80c-21 -20 -94 -91 -230 -91zM302 33c86 0 143 31 174 61c-52 39 -143 119 -167 143s-82 84 -108 119c-48 -29 -79 -75 -79 -143c0 -106 77 -180 180 -180z" />
    <glyph glyph-name="exclam.sc" unicode="&#xf721;" horiz-adv-x="320" 
d="M143 206l-16 266c-1 15 -7 158 -15 189c-2 8 -4 14 -4 19s2 9 5 14c14 24 46 54 74 68c8 4 11 5 15 5s6 -2 6 -10c0 -7 -10 -58 -15 -132c-1 -18 -21 -415 -23 -439c-1 -14 -2 -32 -12 -32s-13 13 -15 52zM160 -17c-35 0 -50 28 -50 51c0 21 15 51 51 51
c29 0 51 -19 51 -48c0 -30 -21 -54 -52 -54z" />
    <glyph glyph-name="exclamdown.sc" unicode="&#xf7a1;" horiz-adv-x="320" 
d="M162 667c35 0 50 -28 50 -51c0 -21 -15 -51 -51 -51c-29 0 -51 19 -51 48c0 30 21 54 52 54zM173 444l16 -266c1 -15 7 -158 15 -189c2 -8 4 -14 4 -19s-2 -9 -5 -14c-14 -24 -46 -54 -74 -68c-8 -4 -11 -5 -15 -5s-6 2 -6 10c0 7 10 58 15 132c1 18 21 415 23 439
c1 14 2 32 12 32s13 -13 15 -52z" />
    <glyph glyph-name="question.sc" unicode="&#xf73f;" horiz-adv-x="488" 
d="M223 733c-49 0 -82 -19 -98 -39c-24 -29 -32 -59 -35 -93c-1 -10 -3 -17 -8 -17s-7 3 -8 10c-3 14 -4 78 -4 117c0 6 1 10 11 16c30 18 89 40 166 40c132 0 181 -84 181 -156c0 -117 -76 -168 -172 -287c-37 -47 -41 -63 -41 -80c0 -15 5 -32 19 -51c7 -9 9 -14 9 -17
c0 -4 -7 -9 -11 -9c-9 0 -30 20 -42 35c-20 25 -29 41 -29 59c0 14 7 31 22 50c23 30 47 55 69 83c70 89 88 144 88 210c0 49 -26 129 -117 129zM224 -17c-35 0 -50 28 -50 51c0 21 15 51 51 51c29 0 51 -19 51 -48c0 -30 -21 -54 -52 -54z" />
    <glyph glyph-name="questiondown.sc" unicode="&#xf7bf;" horiz-adv-x="488" 
d="M265 -83c49 0 82 19 98 39c24 29 32 59 35 93c1 10 3 17 8 17s7 -3 8 -10c3 -13 4 -78 4 -117c0 -6 -1 -10 -11 -16c-30 -18 -89 -40 -166 -40c-133 0 -181 86 -181 156c0 116 76 168 172 287c37 47 41 63 41 80c0 15 -5 32 -19 51c-7 9 -9 14 -9 17c0 4 7 9 11 9
c9 0 30 -20 42 -35c20 -25 29 -41 29 -59c0 -14 -7 -31 -22 -50c-23 -30 -47 -55 -69 -83c-70 -89 -88 -141 -88 -212c0 -47 26 -127 117 -127zM263 667c35 0 50 -28 50 -51c0 -21 -15 -51 -51 -51c-29 0 -51 19 -51 48c0 30 21 54 52 54z" />
    <glyph glyph-name="zero.oldstyle" unicode="&#xf730;" horiz-adv-x="618" 
d="M61 301c0 204 91 355 255 355c184 0 242 -186 242 -316c0 -204 -95 -357 -257 -357c-181 0 -240 188 -240 318zM141 336c0 -149 52 -322 179 -322c94 0 158 113 158 290c0 147 -56 321 -181 321c-94 0 -156 -111 -156 -289z" />
    <glyph glyph-name="one.oldstyle" unicode="&#xf731;" horiz-adv-x="470" 
d="M293 374v-133c0 -100 0 -123 5 -167c4 -31 8 -49 40 -56c15 -3 57 -6 66 -6c4 0 8 -4 8 -8c0 -5 -5 -7 -17 -7c-75 0 -139 3 -144 3s-89 -3 -153 -3c-11 0 -16 2 -16 7c0 4 4 8 8 8c12 0 61 3 80 7c33 6 40 24 42 55c3 44 3 67 3 167v123c0 54 -1 97 -1 152
c0 20 -2 31 -18 31c-19 0 -89 -36 -114 -48c-5 -3 -8 -4 -12 -4c-3 0 -6 5 -6 9c0 3 3 7 7 10l193 129c9 6 17 12 24 12c8 0 10 -11 10 -21c0 -8 -5 -107 -5 -260z" />
    <glyph glyph-name="two.oldstyle" unicode="&#xf732;" horiz-adv-x="555" 
d="M417 0h-379c-7 0 -14 6 -14 13s10 16 18 22c157 118 351 251 351 437c0 132 -94 148 -161 148c-48 0 -76 -8 -105 -34c-24 -21 -37 -51 -37 -87c0 -8 -4 -14 -9 -14c-4 0 -7 4 -8 12s-6 84 -6 113c0 5 1 8 10 13c37 15 95 33 176 33c151 0 227 -69 227 -167
c0 -207 -208 -332 -348 -424c-5 -4 -3 -5 2 -5h72c17 0 135 2 171 5c73 7 105 38 117 87c3 10 6 14 12 14c5 0 6 -9 6 -14c0 -17 -20 -92 -30 -124c-8 -24 -23 -28 -65 -28z" />
    <glyph glyph-name="three.oldstyle" unicode="&#xf733;" horiz-adv-x="541" 
d="M391 171c0 115 -109 158 -170 169c-18 3 -24 5 -24 11s9 8 21 10c46 8 145 49 145 149c0 36 -21 110 -131 110c-68 0 -116 -30 -116 -96c0 -9 -4 -10 -7 -10s-6 2 -7 10c-4 27 -6 65 -6 85c0 8 1 11 12 18c28 13 81 29 150 29c152 0 187 -85 187 -128
c0 -86 -99 -142 -127 -154v-5c59 -13 157 -66 157 -165c0 -119 -116 -221 -281 -221c-38 0 -94 11 -114 21c-13 8 -15 14 -15 24c0 40 3 88 6 107c1 9 3 13 8 13s6 -3 7 -12c7 -66 41 -110 139 -110c94 0 166 43 166 145z" />
    <glyph glyph-name="four.oldstyle" unicode="&#xf734;" horiz-adv-x="575" 
d="M411 503v-257h68c24 0 33 9 37 9c5 0 5 -5 5 -10s-4 -29 -8 -40c-5 -9 -8 -12 -19 -12h-83c0 -31 -3 -82 1 -123c3 -28 10 -48 39 -55c13 -3 31 -3 40 -3c5 0 8 -4 8 -8c0 -5 -4 -7 -14 -7c-50 0 -108 3 -114 3s-55 -3 -105 -3c-10 0 -14 2 -14 7c0 4 2 8 7 8
c8 0 28 0 42 2c30 5 36 28 39 56c4 41 2 92 2 123h-283c-11 0 -19 3 -19 11c0 7 5 14 9 19c5 6 306 376 335 417c7 10 13 16 19 16s9 -6 9 -15c0 -14 -1 -87 -1 -138zM342 246v288h-2c-14 -23 -215 -265 -232 -288h234z" />
    <glyph glyph-name="five.oldstyle" unicode="&#xf735;" horiz-adv-x="540" 
d="M178 579l-12 -130c121 -18 297 -67 297 -236c0 -123 -93 -230 -285 -230c-28 0 -64 4 -88 17c-16 9 -18 18 -18 27c0 32 -1 89 4 119c2 10 5 17 9 17c6 0 7 -5 7 -16c0 -102 61 -122 130 -122c80 0 167 21 167 152c0 153 -168 202 -241 206c-19 1 -26 7 -25 17l20 226
c1 10 8 13 18 13h224c27 0 44 1 55 3c11 1 17 3 20 3c4 0 6 -1 6 -9c0 -9 -3 -51 -12 -120c-1 -5 -4 -10 -8 -10s-5 5 -5 12c0 36 -9 61 -84 61h-179z" />
    <glyph glyph-name="six.oldstyle" unicode="&#xf736;" horiz-adv-x="558" 
d="M416 153c0 128 -81 182 -136 182c-23 0 -47 -3 -68 -13c-3 -1 -9 -4 -12 -4s-3 2 -3 7s3 8 8 12c18 13 54 32 105 32c125 0 181 -92 181 -174c0 -72 -25 -111 -65 -151c-42 -42 -89 -61 -156 -61c-126 0 -212 73 -212 240c0 179 132 349 307 427c8 4 15 6 19 6s7 -3 7 -8
c0 -7 -8 -12 -17 -17c-116 -65 -238 -190 -238 -408c0 -108 47 -206 151 -206c72 0 129 35 129 136z" />
    <glyph glyph-name="seven.oldstyle" unicode="&#xf737;" horiz-adv-x="550" 
d="M167 638h308c12 0 17 -4 17 -9c0 -3 -1 -9 -6 -16c-77 -102 -234 -439 -248 -549c-2 -14 0 -21 0 -30c0 -17 -74 -51 -93 -51c-6 0 -8 2 -8 8c0 9 2 21 5 29c37 111 141 341 284 564h-234c-28 0 -65 -4 -88 -21c-20 -15 -34 -42 -37 -66c-1 -8 -3 -12 -8 -12s-6 5 -6 14
c0 27 14 127 14 135c0 9 4 12 10 12s28 -8 90 -8z" />
    <glyph glyph-name="eight.oldstyle" unicode="&#xf738;" horiz-adv-x="583" 
d="M74 149c0 96 81 160 166 191c-73 40 -130 87 -130 162c0 65 62 154 198 154c97 0 171 -48 171 -132c0 -90 -82 -143 -134 -166c61 -30 162 -83 162 -188c0 -100 -88 -187 -221 -187c-116 0 -212 63 -212 166zM293 15c86 0 143 61 143 136c0 93 -80 135 -164 175
c-69 -31 -126 -83 -126 -169c0 -75 60 -142 147 -142zM297 627c-84 0 -121 -61 -121 -109c0 -72 62 -109 138 -147c36 20 99 55 99 143c0 65 -44 113 -116 113z" />
    <glyph glyph-name="nine.oldstyle" unicode="&#xf739;" horiz-adv-x="590" 
d="M152 483c0 -129 82 -183 138 -183c24 0 47 2 68 12c3 1 9 3 12 3s4 -2 4 -7s-3 -7 -8 -11c-18 -13 -55 -32 -106 -32c-127 0 -183 94 -183 176c0 73 25 113 65 153c43 42 91 62 158 62c128 0 214 -75 214 -244c0 -180 -133 -352 -310 -430c-8 -4 -15 -7 -19 -7
s-8 5 -8 10c0 7 9 11 18 16c117 66 240 191 240 411c0 109 -47 209 -152 209c-73 0 -131 -36 -131 -138z" />
    <glyph glyph-name="zero.fitted" horiz-adv-x="651" 
d="M64 352c0 238 96 415 269 415c194 0 254 -217 254 -369c0 -238 -99 -415 -270 -415c-191 0 -253 217 -253 369zM148 393c0 -174 55 -373 189 -373c99 0 166 129 166 335c0 172 -58 375 -190 375c-99 0 -165 -130 -165 -337z" />
    <glyph glyph-name="one.fitted" horiz-adv-x="470" 
d="M293 486v-185c0 -100 0 -186 5 -230c4 -31 8 -46 40 -53c15 -3 57 -6 66 -6c4 0 8 -4 8 -8c0 -5 -5 -7 -17 -7c-75 0 -139 3 -144 3s-89 -3 -153 -3c-11 0 -16 2 -16 7c0 4 4 8 8 8c12 0 61 3 80 7c33 6 40 21 42 52c3 44 3 130 3 230v175c0 54 -1 97 -1 152
c0 20 -2 31 -18 31c-19 0 -89 -36 -114 -48c-5 -3 -8 -4 -12 -4c-3 0 -6 5 -6 9c0 3 3 7 7 10l193 129c9 6 17 12 24 12c8 0 10 -11 10 -21c0 -8 -5 -107 -5 -260z" />
    <glyph glyph-name="two.fitted" horiz-adv-x="585" 
d="M417 0h-379c-7 0 -14 6 -14 14s10 17 18 24c200 178 349 316 349 508c0 143 -92 185 -159 185c-48 0 -78 -11 -107 -38c-24 -23 -35 -58 -35 -97c0 -9 -4 -15 -9 -15c-4 0 -7 4 -8 13s-6 92 -6 123c0 6 1 9 10 15c37 17 95 35 176 35c151 0 226 -96 226 -202
c0 -207 -224 -392 -348 -498c-5 -4 -3 -7 2 -7h73c17 0 135 1 171 5c73 7 105 43 117 96c3 11 6 15 12 15c5 0 6 -9 6 -15c0 -19 -20 -97 -30 -131c-8 -27 -23 -30 -65 -30z" />
    <glyph glyph-name="three.fitted" horiz-adv-x="590" 
d="M423 203c0 134 -120 181 -185 194c-19 4 -26 6 -26 13s10 10 23 12c49 9 159 57 159 174c0 42 -26 135 -144 135c-73 0 -126 -41 -126 -118c0 -10 -4 -12 -7 -12s-6 2 -7 11c-4 32 -7 77 -7 100c0 9 1 13 13 21c31 15 87 34 162 34c163 0 198 -100 198 -150
c0 -100 -103 -166 -134 -180v-5c63 -15 165 -76 165 -192c0 -140 -121 -257 -299 -257c-41 0 -101 12 -122 24c-14 9 -16 16 -16 28c0 47 4 103 7 125c1 10 3 15 8 15s6 -3 7 -14c7 -77 45 -135 150 -135c101 0 181 58 181 177z" />
    <glyph glyph-name="four.fitted" horiz-adv-x="637" 
d="M455 600v-321h76c27 0 37 11 41 11c5 0 5 -7 5 -12s-5 -28 -9 -40c-5 -10 -9 -13 -21 -13h-92c0 -33 -2 -110 2 -154c3 -30 11 -47 43 -55c14 -3 34 -4 44 -4c5 0 9 -4 9 -8c0 -5 -5 -7 -16 -7c-55 0 -119 3 -126 3s-61 -3 -116 -3c-11 0 -16 2 -16 7c0 4 3 8 8 8
c9 0 31 1 47 3c33 5 40 26 43 56c4 44 2 121 2 154h-330c-12 0 -21 3 -21 12c0 8 5 16 9 21c6 7 356 447 388 491c8 11 14 18 21 18s10 -7 10 -17c0 -15 -1 -95 -1 -150zM379 279v354h-2c-15 -26 -260 -329 -279 -354h281z" />
    <glyph glyph-name="five.fitted" horiz-adv-x="569" 
d="M189 687l-14 -154c127 -19 312 -96 312 -274c0 -129 -98 -276 -300 -276c-30 0 -67 4 -92 18c-17 9 -19 18 -19 28c0 34 -1 94 4 126c2 10 5 18 9 18c6 0 8 -5 8 -17c0 -107 64 -129 137 -129c84 0 176 56 176 194c0 161 -177 239 -254 243c-20 1 -27 7 -26 18l23 255
c1 10 8 13 19 13h235c28 0 46 2 58 4c12 1 18 3 21 3c4 0 7 -2 7 -10c0 -9 -3 -53 -13 -126c-1 -5 -4 -11 -8 -11s-6 6 -6 13c0 38 -9 64 -88 64h-189z" />
    <glyph glyph-name="six.fitted" horiz-adv-x="603" 
d="M461 195c0 139 -90 210 -151 210c-26 0 -52 -2 -75 -13c-3 -1 -10 -4 -13 -4s-4 3 -4 8s3 8 9 12c20 14 60 35 116 35c139 0 201 -114 201 -203c0 -79 -28 -147 -72 -190c-47 -45 -99 -67 -173 -67c-140 0 -235 106 -235 288c0 194 152 405 346 489c9 4 17 7 21 7
s8 -3 8 -9c0 -8 -9 -12 -19 -18c-128 -71 -269 -232 -269 -469c0 -117 52 -250 167 -250c80 0 143 64 143 174z" />
    <glyph glyph-name="seven.fitted" horiz-adv-x="550" 
d="M178 750h324c13 0 18 -4 18 -10c0 -4 -1 -11 -6 -19c-81 -120 -246 -512 -261 -642c-2 -17 0 -24 0 -35c0 -20 -78 -61 -98 -61c-6 0 -9 3 -9 10c0 10 3 25 6 34c39 131 147 398 298 660h-246c-29 0 -69 -5 -93 -25c-21 -17 -35 -49 -38 -77c-1 -9 -4 -14 -9 -14
s-6 5 -6 16c0 32 15 149 15 159s4 14 10 14s30 -10 95 -10z" />
    <glyph glyph-name="eight.fitted" horiz-adv-x="625" 
d="M80 177c0 112 87 187 178 223c-78 46 -140 99 -140 188c0 76 67 179 213 179c104 0 183 -55 183 -153c0 -105 -87 -165 -143 -193c66 -34 174 -95 174 -218c0 -116 -95 -220 -238 -220c-125 0 -227 73 -227 194zM315 21c92 0 153 70 153 159c0 109 -86 157 -176 204
c-74 -36 -135 -97 -135 -197c0 -89 65 -166 158 -166zM319 733c-90 0 -130 -71 -130 -126c0 -84 66 -126 148 -170c39 23 107 63 107 165c0 76 -48 131 -125 131z" />
    <glyph glyph-name="nine.fitted" horiz-adv-x="590" 
d="M297 767c141 0 229 -120 229 -272c0 -281 -224 -454 -346 -515c-6 -3 -12 -4 -16 -4s-8 4 -8 10s4 11 10 14c118 65 272 231 272 466c0 175 -77 264 -165 264c-90 0 -137 -74 -137 -153c0 -166 123 -199 150 -199c47 0 67 10 80 18c6 4 10 6 13 6s5 -4 5 -7s-1 -5 -4 -8
c-29 -31 -80 -46 -120 -46c-142 0 -202 109 -202 193c0 138 101 233 239 233z" />
    <glyph glyph-name="zero.taboldstyle" 
d="M37 301c0 240 111 355 237 355c133 0 224 -137 224 -316c0 -215 -103 -357 -236 -357c-116 0 -225 103 -225 318zM114 336c0 -156 57 -322 164 -322c56 0 143 73 143 290c0 146 -59 321 -166 321c-78 0 -141 -107 -141 -289z" />
    <glyph glyph-name="one.taboldstyle" 
d="M323 374v-133c0 -100 0 -123 5 -167c4 -31 8 -49 40 -56c15 -3 57 -6 66 -6c4 0 8 -4 8 -8c0 -5 -5 -7 -17 -7c-75 0 -139 3 -144 3s-89 -3 -153 -3c-11 0 -16 2 -16 7c0 4 4 8 8 8c12 0 61 3 80 7c33 6 40 24 42 55c3 44 3 67 3 167v123c0 54 -1 97 -1 152
c0 20 -2 31 -18 31c-19 0 -89 -36 -114 -48c-5 -3 -8 -4 -12 -4c-3 0 -6 5 -6 9c0 3 3 7 7 10l193 129c9 6 17 12 24 12c8 0 10 -11 10 -21c0 -8 -5 -107 -5 -260z" />
    <glyph glyph-name="two.taboldstyle" 
d="M405 0h-379c-7 0 -14 6 -14 13s10 16 18 22c157 118 351 251 351 437c0 132 -94 148 -161 148c-48 0 -76 -8 -105 -34c-24 -21 -37 -51 -37 -87c0 -8 -4 -14 -9 -14c-4 0 -7 4 -8 12s-6 84 -6 113c0 5 1 8 10 13c37 15 95 33 176 33c151 0 227 -69 227 -167
c0 -207 -208 -332 -348 -424c-5 -4 -3 -5 2 -5h72c17 0 135 2 171 5c73 7 105 38 117 87c3 10 6 14 12 14c5 0 6 -9 6 -14c0 -17 -20 -92 -30 -124c-8 -24 -23 -28 -65 -28z" />
    <glyph glyph-name="three.taboldstyle" 
d="M389 171c0 115 -109 158 -170 169c-18 3 -25 5 -25 11s10 8 21 10c47 8 146 49 146 149c0 36 -21 110 -131 110c-68 0 -116 -30 -116 -96c0 -9 -4 -10 -7 -10s-6 2 -7 10c-4 27 -6 65 -6 85c0 8 0 11 11 18c28 13 81 29 150 29c152 0 188 -85 188 -128
c0 -86 -99 -142 -128 -154v-5c59 -13 158 -66 158 -165c0 -119 -116 -221 -281 -221c-38 0 -94 11 -114 21c-13 8 -16 14 -16 24c0 40 4 88 6 107c2 9 3 13 8 13s7 -3 7 -12c8 -66 41 -110 139 -110c94 0 167 43 167 145z" />
    <glyph glyph-name="four.taboldstyle" 
d="M386 503v-257h68c24 0 33 9 37 9c5 0 5 -5 5 -10s-4 -29 -8 -40c-5 -9 -8 -12 -19 -12h-83c0 -31 -3 -82 1 -123c3 -28 10 -48 39 -55c13 -3 31 -3 40 -3c5 0 8 -4 8 -8c0 -5 -4 -7 -14 -7c-50 0 -108 3 -114 3s-55 -3 -105 -3c-10 0 -14 2 -14 7c0 4 2 8 7 8
c8 0 28 0 42 2c30 5 36 28 39 56c4 41 2 92 2 123h-263c-11 0 -19 3 -19 11c0 7 5 14 9 19c5 6 286 376 315 417c7 10 13 16 19 16s9 -6 9 -15c0 -14 -1 -87 -1 -138zM317 246v288h-2c-14 -23 -195 -265 -212 -288h214z" />
    <glyph glyph-name="five.taboldstyle" 
d="M177 579l-13 -130c121 -18 298 -67 298 -236c0 -123 -93 -230 -285 -230c-28 0 -65 4 -88 17c-17 9 -18 18 -18 27c0 32 -2 89 3 119c2 10 5 17 9 17c7 0 7 -5 7 -16c0 -102 61 -122 130 -122c80 0 168 21 168 152c0 153 -168 202 -241 206c-19 1 -26 7 -26 17l21 226
c0 10 7 13 17 13h224c27 0 44 1 55 3c12 1 17 3 20 3c4 0 7 -1 7 -9c0 -9 -3 -51 -13 -120c0 -5 -3 -10 -7 -10c-5 0 -5 5 -5 12c0 36 -9 61 -84 61h-179z" />
    <glyph glyph-name="six.taboldstyle" 
d="M417 153c0 128 -81 182 -136 182c-23 0 -47 -3 -68 -13c-3 -1 -9 -4 -12 -4s-3 2 -3 7s3 8 8 12c18 13 54 32 105 32c125 0 181 -92 181 -174c0 -72 -25 -111 -65 -151c-42 -42 -89 -61 -156 -61c-126 0 -212 73 -212 240c0 179 132 349 307 427c8 4 15 6 19 6s7 -3 7 -8
c0 -7 -8 -12 -17 -17c-116 -65 -238 -190 -238 -408c0 -108 47 -206 151 -206c72 0 129 35 129 136z" />
    <glyph glyph-name="seven.taboldstyle" 
d="M180 638h308c12 0 17 -4 17 -9c0 -3 -1 -9 -6 -16c-77 -102 -234 -439 -248 -549c-2 -14 0 -21 0 -30c0 -17 -74 -51 -93 -51c-6 0 -8 2 -8 8c0 9 2 21 5 29c37 111 141 341 284 564h-234c-28 0 -65 -4 -88 -21c-20 -15 -34 -42 -37 -66c-1 -8 -3 -12 -8 -12s-6 5 -6 14
c0 27 14 127 14 135c0 9 4 12 10 12s28 -8 90 -8z" />
    <glyph glyph-name="eight.taboldstyle" 
d="M51 149c0 96 81 160 166 191c-73 40 -130 87 -130 162c0 65 62 154 198 154c97 0 171 -48 171 -132c0 -90 -82 -143 -134 -166c61 -30 162 -83 162 -188c0 -100 -88 -187 -221 -187c-116 0 -212 63 -212 166zM270 15c86 0 143 61 143 136c0 93 -80 135 -164 175
c-69 -31 -126 -83 -126 -169c0 -75 60 -142 147 -142zM274 627c-84 0 -121 -61 -121 -109c0 -72 62 -109 138 -147c36 20 99 55 99 143c0 65 -44 113 -116 113z" />
    <glyph glyph-name="nine.taboldstyle" 
d="M120 483c0 -129 82 -183 138 -183c24 0 47 2 68 12c3 1 9 3 12 3s4 -2 4 -7s-3 -7 -8 -11c-18 -13 -55 -32 -106 -32c-127 0 -183 94 -183 176c0 73 25 113 65 153c43 42 91 62 158 62c128 0 214 -75 214 -244c0 -180 -133 -352 -310 -430c-8 -4 -15 -7 -19 -7
s-8 5 -8 10c0 7 9 11 18 16c117 66 240 191 240 411c0 109 -47 209 -152 209c-73 0 -131 -36 -131 -138z" />
    <glyph glyph-name="a.superior" horiz-adv-x="400" 
d="M245 522h-120c-3 0 -4 -2 -5 -5l-22 -60c-3 -9 -6 -20 -6 -26c0 -9 8 -14 14 -14h5c4 0 6 -1 6 -4c0 -4 -4 -5 -9 -5c-13 0 -36 2 -45 2c-10 0 -37 -2 -63 -2c-7 0 -10 1 -10 5c0 3 2 4 5 4c4 0 11 0 16 1c23 2 35 18 45 42l127 295c4 9 8 12 13 12c4 0 7 -2 14 -17
c8 -17 92 -211 129 -281c20 -37 31 -47 43 -50c8 -2 16 -2 22 -2c3 0 5 -1 5 -4c0 -4 -5 -5 -11 -5c-8 0 -48 0 -98 2c-11 0 -17 1 -17 3c0 3 2 4 4 5c3 1 6 5 4 10l-40 90c-2 3 -3 4 -6 4zM137 552h94c3 0 4 2 3 4l-46 112c-3 7 -7 7 -10 0l-43 -112c-1 -2 0 -4 2 -4z" />
    <glyph glyph-name="o.superior" horiz-adv-x="437" 
d="M216 405c-137 0 -196 91 -196 181c0 81 64 181 199 181c116 0 199 -65 199 -173c0 -104 -79 -189 -202 -189zM230 432c36 0 117 22 117 149c0 103 -71 160 -137 160c-57 0 -119 -46 -119 -144c0 -95 65 -165 139 -165z" />
    <glyph glyph-name="one.superior" horiz-adv-x="330" 
d="M200 595v-110c0 -54 0 -105 3 -131c2 -17 6 -27 29 -32c12 -3 39 -5 46 -5c5 0 9 -2 9 -6c0 -5 -3 -8 -12 -8c-54 0 -101 2 -105 2s-66 -2 -115 -2c-8 0 -12 2 -12 7c0 4 3 7 8 7c8 0 43 2 57 5c24 5 28 15 30 32c3 26 3 77 3 131v110c0 32 0 66 -1 76c-1 9 -1 16 -12 16
c-12 0 -67 -23 -83 -30c-2 -1 -6 -3 -9 -3s-6 3 -6 6s1 5 3 7c4 4 140 86 146 91c5 4 13 9 18 9s6 -6 6 -13c0 -5 -3 -61 -3 -159z" />
    <glyph glyph-name="two.superior" horiz-adv-x="444" 
d="M316 305h-253c-7 0 -11 3 -11 8c0 6 8 12 12 16c102 82 227 180 227 299c0 87 -58 113 -97 113c-29 0 -50 -6 -70 -27c-12 -13 -22 -30 -22 -55c0 -8 -4 -11 -8 -11c-3 0 -5 5 -6 11c-1 5 -4 52 -4 69c0 9 1 11 7 14c29 14 68 25 115 25c100 0 151 -58 151 -119
c0 -119 -124 -221 -222 -298c1 -1 -1 -4 3 -4h33c11 0 104 3 115 4c49 4 66 19 76 51c3 8 5 10 9 10s5 -4 5 -9c0 -11 -12 -60 -23 -80c-7 -13 -21 -17 -37 -17z" />
    <glyph glyph-name="three.superior" horiz-adv-x="413" 
d="M158 301c-35 0 -74 5 -88 13c-11 6 -11 9 -11 27c0 17 1 51 3 64c1 7 3 9 6 9s5 -2 6 -8c4 -40 26 -75 103 -75c60 0 108 38 108 109c0 68 -67 99 -118 105c-16 2 -20 5 -20 9c0 6 5 9 18 11c28 4 100 38 100 102c0 21 -17 74 -87 74c-46 0 -87 -28 -87 -65
c0 -9 -1 -13 -5 -13s-6 3 -7 11c-3 18 -6 45 -6 59c0 5 0 11 9 15c21 9 56 19 113 19c107 0 131 -56 131 -85c0 -59 -66 -98 -93 -109v-2c37 -6 119 -41 119 -115c0 -83 -84 -155 -194 -155z" />
    <glyph glyph-name="four.superior" unicode="&#x2074;" horiz-adv-x="463" 
d="M325 472h51c18 0 27 7 30 7s6 -4 6 -7s-3 -18 -6 -29c-2 -6 -6 -8 -13 -8h-68c0 -15 -1 -57 1 -84c2 -18 7 -30 28 -32c9 -1 22 -2 29 -2c3 0 6 -4 6 -7s-3 -7 -10 -7c-36 0 -85 2 -90 2c-4 0 -43 -2 -79 -2c-7 0 -8 3 -8 6s4 8 8 8c5 0 19 1 29 2c22 2 28 14 29 32
c1 27 1 69 1 84h-220c-8 0 -14 3 -14 8c0 7 7 14 10 17c4 4 236 270 257 296c6 7 11 11 16 11c6 0 7 -4 7 -10v-285zM269 472v200h-1c-13 -13 -155 -180 -173 -200h174z" />
    <glyph glyph-name="at.cap" horiz-adv-x="906" 
d="M840 481c0 -104 -51 -197 -134 -252c-42 -28 -84 -42 -125 -42c-31 0 -61 19 -70 51c-8 29 -9 48 -6 100l-3 1c-66 -99 -140 -148 -182 -148c-29 0 -53 43 -53 95c0 142 90 216 119 238c44 33 97 56 129 56c30 0 47 -8 56 -12c9 11 39 37 58 43c6 2 10 -5 8 -11
c-5 -8 -25 -38 -37 -80c-11 -37 -23 -113 -26 -153c-6 -71 -5 -138 63 -138c80 0 157 96 157 249c0 145 -97 261 -285 261c-234 0 -376 -184 -376 -422c0 -188 119 -298 286 -298c133 0 196 37 263 91c16 13 25 12 27 7c2 -4 -1 -12 -16 -27c-52 -51 -162 -108 -296 -108
c-179 0 -331 103 -331 327c0 242 208 455 450 455c219 0 324 -118 324 -283zM545 527c-10 6 -40 18 -61 18c-49 0 -86 -28 -114 -92c-19 -45 -30 -100 -30 -144c0 -25 8 -61 24 -61c36 0 110 83 145 141c12 58 17 83 36 138z" />
    <glyph glyph-name="emdash.cap" horiz-adv-x="1000" 
d="M1000 382h-1000v46h1000v-46z" />
    <glyph glyph-name="endash.cap" horiz-adv-x="500" 
d="M0 382v46h500v-46h-500z" />
    <glyph glyph-name="exclamdown.cap" horiz-adv-x="320" 
d="M162 767c35 0 50 -28 50 -51c0 -21 -15 -51 -51 -51c-29 0 -51 19 -51 48c0 30 21 54 52 54zM173 544l16 -266c1 -15 7 -158 15 -189c2 -8 4 -14 4 -19s-2 -9 -5 -14c-14 -24 -46 -54 -74 -68c-8 -4 -11 -5 -15 -5s-6 2 -6 10c0 7 10 58 15 132c1 18 21 415 23 439
c1 14 2 32 12 32s13 -13 15 -52z" />
    <glyph glyph-name="guillemotleft.cap" horiz-adv-x="560" 
d="M481 240l-30 -33c-2 -3 -6 -5 -8 -5s-8 5 -23 22c-23 26 -120 132 -140 152c-13 13 -18 18 -18 24c0 3 5 10 19 22c21 18 169 165 178 174c8 7 13 11 18 11c4 0 9 -4 9 -8c0 -5 -3 -10 -6 -13c-5 -6 -121 -140 -151 -181c15 -18 93 -100 142 -143c11 -10 14 -13 14 -15
s-2 -5 -4 -7zM294 240l-30 -33c-2 -3 -6 -5 -8 -5s-8 5 -23 22c-23 26 -120 132 -140 152c-13 13 -18 18 -18 24c0 3 5 10 19 22c21 18 169 165 178 174c8 7 13 11 18 11c4 0 9 -4 9 -8c0 -5 -3 -10 -6 -13c-5 -6 -121 -140 -151 -181c15 -18 93 -100 142 -143
c11 -10 14 -13 14 -15s-2 -5 -4 -7z" />
    <glyph glyph-name="guillemotright.cap" horiz-adv-x="560" 
d="M79 569l30 33c2 3 6 5 8 5s8 -5 23 -22c23 -26 120 -132 140 -152c13 -13 18 -18 18 -24c0 -3 -5 -10 -19 -22c-21 -18 -169 -165 -178 -174c-8 -7 -13 -11 -18 -11c-4 0 -9 4 -9 8c0 5 3 10 6 13c5 6 121 140 151 181c-15 18 -93 100 -142 143c-11 10 -14 13 -14 15
s2 5 4 7zM266 569l30 33c2 3 6 5 8 5s8 -5 23 -22c23 -26 120 -132 140 -152c13 -13 18 -18 18 -24c0 -3 -5 -10 -19 -22c-21 -18 -169 -165 -178 -174c-8 -7 -13 -11 -18 -11c-4 0 -9 4 -9 8c0 5 3 10 6 13c5 6 121 140 151 181c-15 18 -93 100 -142 143
c-11 10 -14 13 -14 15s2 5 4 7z" />
    <glyph glyph-name="guilsinglleft.cap" horiz-adv-x="375" 
d="M294 240l-30 -33c-2 -3 -6 -5 -8 -5s-8 5 -23 22c-23 26 -120 132 -140 152c-13 13 -18 18 -18 24c0 3 5 10 19 22c21 18 169 165 178 174c8 7 13 11 18 11c4 0 9 -4 9 -8c0 -5 -3 -10 -6 -13c-5 -6 -121 -140 -151 -181c15 -18 93 -100 142 -143c11 -10 14 -13 14 -15
s-2 -5 -4 -7z" />
    <glyph glyph-name="guilsinglright.cap" horiz-adv-x="375" 
d="M81 569l30 33c2 3 6 5 8 5s8 -5 23 -22c23 -26 120 -132 140 -152c13 -13 18 -18 18 -24c0 -3 -5 -10 -19 -22c-21 -18 -169 -165 -178 -174c-8 -7 -13 -11 -18 -11c-4 0 -9 4 -9 8c0 5 3 10 6 13c5 6 121 140 151 181c-15 18 -93 100 -142 143c-11 10 -14 13 -14 15
s2 5 4 7z" />
    <glyph glyph-name="hyphen.cap" horiz-adv-x="390" 
d="M73 410h252c17 0 30 -2 30 -10c0 -12 -19 -14 -35 -17c-27 -4 -204 -28 -238 -37c-19 -5 -36 -15 -41 -15c-6 0 -7 6 -5 15l15 56c2 7 6 8 22 8z" />
    <glyph glyph-name="questiondown.cap" horiz-adv-x="488" 
d="M265 17c49 0 82 19 98 39c24 29 32 59 35 93c1 10 3 17 8 17s7 -3 8 -10c3 -13 4 -78 4 -117c0 -6 -1 -10 -11 -16c-30 -18 -89 -40 -166 -40c-133 0 -181 86 -181 156c0 116 76 168 172 287c37 47 41 63 41 80c0 15 -5 32 -19 51c-7 9 -9 14 -9 17c0 4 7 9 11 9
c9 0 30 -20 42 -35c20 -25 29 -41 29 -59c0 -14 -7 -31 -22 -50c-23 -30 -47 -55 -69 -83c-70 -89 -88 -141 -88 -212c0 -47 26 -127 117 -127zM263 767c35 0 50 -28 50 -51c0 -21 -15 -51 -51 -51c-29 0 -51 19 -51 48c0 30 21 54 52 54z" />
    <glyph glyph-name="braceleft.cap" horiz-adv-x="360" 
d="M134 399c21 -11 47 -39 58 -79c10 -37 10 -69 10 -150c0 -168 41 -212 75 -226c19 -7 22 -9 22 -13s-3 -5 -18 -5c-19 0 -66 16 -103 67c-26 36 -51 86 -51 228c0 30 7 74 7 107c0 13 -2 24 -7 32c-10 17 -31 20 -59 25c-11 2 -12 3 -12 8c0 6 1 8 12 9c52 3 69 7 69 68
c0 37 -10 83 -10 107c0 101 26 141 64 176c31 28 73 41 94 41c9 0 13 -2 13 -5c0 -4 -4 -5 -16 -9c-24 -7 -80 -40 -80 -125c0 -90 3 -139 -8 -180c-9 -35 -39 -68 -60 -76z" />
    <glyph glyph-name="braceright.cap" horiz-adv-x="360" 
d="M226 399c-21 8 -51 41 -60 76c-11 41 -8 90 -8 180c0 85 -57 118 -80 125c-12 4 -16 4 -16 8s4 6 13 6c21 0 63 -13 94 -41c38 -35 64 -75 64 -176c0 -39 -23 -136 1 -159c19 -18 43 -15 58 -16c11 -1 12 -3 12 -9c0 -5 -1 -6 -12 -8c-28 -5 -49 -8 -59 -25
c-16 -26 0 -96 0 -139c0 -142 -25 -192 -51 -228c-37 -51 -84 -67 -103 -67c-15 0 -18 1 -18 4c0 5 3 7 22 14c34 12 75 58 75 226c0 73 -2 107 10 150c11 40 37 68 58 79z" />
    <glyph glyph-name="bracketleft.cap" horiz-adv-x="360" 
d="M97 -58v839c0 11 2 13 17 13h170c8 0 12 -2 12 -7c0 -4 -5 -7 -17 -8c-30 -3 -78 -7 -109 -21c-5 -21 -7 -51 -7 -93v-610c0 -42 2 -72 7 -93c30 -14 78 -18 108 -21c12 -1 17 -3 17 -8s-4 -7 -12 -7h-170c-15 0 -16 1 -16 16z" />
    <glyph glyph-name="bracketright.cap" horiz-adv-x="360" 
d="M263 778v-839c0 -11 -2 -13 -17 -13h-170c-8 0 -12 2 -12 7c0 4 5 7 17 8c30 3 78 7 109 21c5 21 7 51 7 93v610c0 42 -2 72 -7 93c-30 14 -78 18 -108 21c-12 1 -17 3 -17 8s4 7 12 7h170c15 0 16 -1 16 -16z" />
    <glyph glyph-name="parenleft.cap" horiz-adv-x="360" 
d="M137 369c0 -206 59 -325 142 -424c4 -5 7 -8 7 -12s-3 -7 -7 -7c-2 0 -5 2 -9 5c-78 58 -208 213 -208 425c0 213 145 388 207 432c4 3 8 6 11 6c4 0 7 -4 7 -8c0 -3 -3 -7 -7 -11c-48 -48 -143 -203 -143 -406z" />
    <glyph glyph-name="parenright.cap" horiz-adv-x="360" 
d="M223 351c0 206 -59 325 -142 424c-4 5 -7 8 -7 12s3 7 7 7c2 0 5 -2 9 -5c78 -58 208 -213 208 -423c0 -215 -145 -390 -207 -434c-4 -3 -8 -6 -11 -6c-4 0 -7 4 -7 8c0 3 3 7 7 11c48 48 143 203 143 406z" />
    <glyph glyph-name="periodcentered.cap" horiz-adv-x="250" 
d="M124 332c-38 0 -54 30 -54 55c0 23 16 55 55 55c31 0 55 -20 55 -52s-22 -58 -56 -58z" />
    <glyph glyph-name="space_uni0326" unicode="&#xf6c3;" horiz-adv-x="822" 
d="M397 -168c0 44 -32 56 -32 67c0 27 34 52 59 52c5 0 8 -3 17 -18c12 -19 16 -32 16 -41c0 -8 -4 -25 -9 -37c-8 -22 -34 -73 -61 -102c-4 -5 -9 -9 -13 -9c-3 0 -6 3 -6 7s4 9 6 13c16 28 23 50 23 68z" />
    <glyph glyph-name="A.sc" unicode="&#xf761;" horiz-adv-x="624" 
d="M82 91l207 532c11 28 15 33 21 33c9 0 12 -12 21 -31c16 -36 157 -387 211 -516c32 -76 56 -87 75 -93c13 -4 26 -5 35 -5c5 0 11 -2 11 -7s-10 -7 -20 -7c-13 0 -78 0 -139 2c-17 1 -31 1 -31 6c0 4 2 4 6 6c5 2 14 9 8 23l-79 195c-2 4 -3 5 -8 5h-203
c-4 0 -7 -2 -9 -7l-50 -136c-8 -21 -13 -42 -13 -57c0 -17 15 -23 30 -23h8c7 0 9 -3 9 -7c0 -5 -5 -7 -13 -7c-21 0 -69 3 -79 3c-9 0 -53 -3 -89 -3c-11 0 -17 2 -17 7c0 4 4 7 8 7c6 0 19 1 26 2c40 5 57 35 74 78zM209 269h178c4 0 4 2 3 6l-87 233c-5 13 -10 13 -15 0
l-82 -233c-1 -4 0 -6 3 -6z" />
    <glyph glyph-name="B.sc" unicode="&#xf762;" horiz-adv-x="614" 
d="M155 244v150c0 132 0 156 -2 183c-2 29 -7 45 -36 49c-7 1 -22 2 -30 2c-3 0 -7 2 -7 5c0 5 4 7 14 7c40 0 97 -2 102 -2c21 0 62 2 103 2c147 0 185 -85 185 -130c0 -67 -44 -109 -89 -149c67 -20 155 -81 155 -177c0 -95 -71 -189 -221 -189c-16 0 -48 1 -76 3
c-28 1 -53 2 -57 2c-5 0 -62 -3 -89 -3c-9 0 -14 2 -14 7c0 3 2 5 7 5c8 0 19 3 27 4c17 3 19 22 23 47c5 35 5 102 5 184zM231 600v-224c0 -6 2 -8 6 -9c5 -1 21 -4 54 -4c49 0 68 2 86 22c19 21 34 50 34 91c0 65 -36 137 -124 137c-10 0 -31 -1 -45 -4
c-8 -2 -11 -4 -11 -9zM231 329v-47c0 -66 0 -168 1 -181c3 -41 3 -51 30 -64c24 -11 61 -12 77 -12c58 0 129 22 129 131c0 38 -15 111 -84 155c-30 19 -58 18 -79 22c-11 2 -55 2 -69 2c-3 0 -5 -2 -5 -6z" />
    <glyph glyph-name="C.sc" unicode="&#xf763;" horiz-adv-x="708" 
d="M452 -14c-132 0 -221 31 -290 91c-86 74 -107 171 -107 252c0 57 21 156 99 232c53 51 133 91 268 91c35 0 85 -3 128 -10c33 -6 61 -12 90 -13c9 0 11 -4 11 -9c0 -7 -2 -17 -4 -48c-1 -28 -1 -75 -2 -87c-1 -13 -5 -18 -10 -18c-6 0 -7 6 -7 18c0 33 -14 67 -37 85
c-31 26 -95 47 -173 47c-113 0 -167 -30 -198 -59c-65 -60 -79 -136 -79 -222c0 -163 129 -308 317 -308c66 0 110 5 145 40c19 19 31 55 34 71c2 9 3 12 9 12c4 0 8 -6 8 -12s-12 -80 -21 -109c-5 -16 -7 -19 -22 -25c-36 -14 -102 -19 -159 -19z" />
    <glyph glyph-name="D.sc" unicode="&#xf764;" horiz-adv-x="809" 
d="M155 244v150c0 132 0 156 -2 183c-2 29 -7 43 -36 47c-7 1 -22 2 -30 2c-3 0 -7 4 -7 7c0 5 4 7 14 7c40 0 97 -2 102 -2c10 0 66 2 118 2c88 0 249 8 353 -97c44 -44 86 -115 86 -216c0 -107 -46 -189 -95 -239c-38 -39 -117 -98 -267 -98c-38 0 -85 3 -123 5
c-38 3 -68 5 -72 5c-2 0 -18 -1 -36 -1c-18 -1 -39 -2 -53 -2c-9 0 -14 2 -14 7c0 3 2 7 7 7c8 0 19 2 27 4c17 4 19 20 23 45c5 35 5 102 5 184zM235 586v-284c0 -90 0 -169 1 -185c1 -21 3 -52 10 -61c11 -16 42 -34 146 -34c81 0 153 27 206 77c46 43 69 124 69 202
c0 108 -47 177 -83 213c-83 84 -180 95 -285 95c-17 0 -45 -3 -53 -6s-11 -7 -11 -17z" />
    <glyph glyph-name="E.sc" unicode="&#xf765;" horiz-adv-x="551" 
d="M155 244v150c0 132 0 156 -2 183c-2 29 -7 43 -36 47c-7 1 -22 2 -30 2c-3 0 -7 4 -7 7c0 5 4 7 14 7c40 0 97 -2 102 -2c6 0 190 -1 210 0c17 1 33 4 40 5c4 1 8 4 12 4c3 0 4 -4 4 -8c0 -6 -5 -16 -7 -40c-1 -8 -3 -46 -5 -56c-1 -4 -4 -9 -8 -9c-5 0 -7 4 -7 11
c0 6 -1 20 -5 30c-6 14 -15 20 -63 26c-15 2 -117 3 -127 3c-4 0 -5 -3 -5 -9v-231c0 -6 0 -9 5 -9c11 0 127 0 147 2c21 2 34 3 43 12c6 6 10 11 13 11s5 -2 5 -7s-5 -19 -7 -47c-2 -17 -4 -49 -4 -55c0 -7 -2 -16 -8 -16c-4 0 -6 3 -6 8c0 8 0 17 -4 28
c-3 12 -11 22 -45 26c-24 3 -118 4 -133 4c-5 0 -6 -3 -6 -6v-71c0 -29 -1 -128 0 -145c2 -57 18 -68 105 -68c23 0 65 0 88 9c23 10 35 25 40 59c2 10 4 13 9 13s6 -7 6 -13s-7 -64 -12 -82c-6 -22 -15 -22 -49 -22c-66 0 -117 2 -153 3c-37 2 -60 2 -73 2
c-2 0 -19 0 -38 -1c-17 -1 -37 -2 -51 -2c-9 0 -14 2 -14 7c0 3 2 7 7 7c8 0 19 3 27 4c17 3 19 20 23 45c5 35 5 102 5 184z" />
    <glyph glyph-name="F.sc" unicode="&#xf766;" 
d="M155 244v150c0 132 0 156 -2 183c-2 29 -7 43 -36 47c-7 1 -22 2 -30 2c-3 0 -7 4 -7 7c0 5 4 7 14 7c40 0 95 -2 100 -2c17 0 208 -1 228 0c17 1 32 1 40 4c5 1 9 5 12 5c4 0 6 -4 6 -8c0 -6 -4 -16 -7 -40c-1 -8 -2 -46 -4 -56c-1 -4 -4 -9 -8 -9s-7 4 -7 10
c0 7 -3 21 -8 32s-26 25 -60 25l-144 2c-5 0 -7 -2 -7 -9v-232c0 -5 0 -8 6 -8l120 1c15 0 28 0 40 1c21 2 33 5 41 15c4 5 8 9 11 9c4 0 5 -3 5 -7c0 -5 -6 -19 -8 -47c-2 -17 -3 -51 -3 -57c0 -8 -2 -17 -8 -17c-5 0 -6 4 -6 8c-1 9 -2 21 -6 31c-4 12 -18 23 -45 27
c-22 3 -126 2 -141 2c-5 0 -6 -2 -6 -8v-68c0 -84 0 -151 4 -184c3 -25 8 -41 32 -45c13 -2 32 -4 40 -4c5 0 7 -4 7 -7c0 -4 -4 -7 -14 -7c-49 0 -106 3 -110 3c-5 0 -60 -3 -87 -3c-9 0 -14 2 -14 7c0 3 2 7 7 7c8 0 19 3 27 4c17 3 19 20 23 45c5 35 5 102 5 184z" />
    <glyph glyph-name="G.sc" unicode="&#xf767;" horiz-adv-x="759" 
d="M569 67v147c0 69 -2 79 -38 86c-7 1 -22 2 -30 2c-3 0 -7 4 -7 7c0 6 4 7 14 7c40 0 99 -2 104 -2c4 0 59 2 86 2c10 0 14 -1 14 -7c0 -3 -4 -7 -7 -7c-6 0 -12 0 -22 -2c-24 -4 -31 -17 -33 -47c-1 -27 -1 -52 -1 -88v-95c0 -39 -1 -40 -12 -46
c-56 -29 -136 -38 -187 -38c-67 0 -192 8 -290 91c-54 45 -105 136 -105 242c0 136 69 232 147 279c79 48 167 54 234 54c56 0 118 -10 135 -14c18 -4 49 -9 71 -9c9 0 11 -4 11 -8c0 -12 -5 -35 -5 -120c0 -14 -4 -18 -10 -18c-5 0 -6 5 -6 13c-1 11 -6 36 -20 56
c-22 32 -89 66 -203 66c-53 0 -117 -4 -184 -55c-51 -39 -87 -115 -87 -214c0 -120 62 -206 93 -235c70 -65 144 -89 225 -89c31 0 72 3 95 16c11 6 18 10 18 26z" />
    <glyph glyph-name="H.sc" unicode="&#xf768;" horiz-adv-x="847" 
d="M692 394v-150c0 -82 1 -149 5 -184c3 -25 5 -41 32 -45c12 -2 32 -4 39 -4c6 0 8 -4 8 -7c0 -4 -5 -7 -15 -7c-48 0 -104 3 -109 3c-4 0 -61 -3 -87 -3c-10 0 -14 2 -14 7c0 3 2 7 7 7c8 0 18 2 26 4c18 4 21 21 24 46c4 35 4 99 4 181v85c0 4 -2 5 -5 5h-367
c-3 0 -5 -1 -5 -5v-85c0 -82 0 -147 4 -182c3 -25 6 -41 32 -45c13 -2 32 -4 40 -4c5 0 7 -4 7 -7c0 -4 -4 -7 -14 -7c-49 0 -105 3 -109 3c-5 0 -61 -3 -88 -3c-9 0 -14 2 -14 7c0 3 2 7 7 7c8 0 19 2 27 4c17 4 19 20 23 45c5 35 5 102 5 184v150c0 132 0 156 -2 183
c-2 29 -7 43 -36 47c-7 1 -22 2 -30 2c-3 0 -7 4 -7 7c0 5 4 7 14 7c40 0 96 -2 101 -2c4 0 60 2 87 2c10 0 14 -2 14 -7c0 -3 -4 -7 -7 -7c-6 0 -12 0 -22 -2c-24 -5 -29 -17 -31 -47c-1 -27 -1 -53 -1 -185v-18c0 -5 2 -5 5 -5h367c3 0 5 0 5 5v18c0 132 -1 158 -2 185
c-2 29 -6 43 -35 47c-7 1 -22 2 -30 2c-4 0 -7 4 -7 7c0 5 4 7 14 7c39 0 96 -2 100 -2c5 0 61 2 87 2c10 0 15 -2 15 -7c0 -3 -4 -7 -8 -7c-6 0 -11 0 -22 -2c-23 -5 -28 -17 -30 -47c-2 -27 -2 -51 -2 -183z" />
    <glyph glyph-name="I.sc" unicode="&#xf769;" horiz-adv-x="389" 
d="M235 394v-150c0 -82 0 -149 4 -184c3 -25 6 -41 32 -45c13 -2 32 -4 40 -4c5 0 7 -4 7 -7c0 -4 -4 -7 -14 -7c-49 0 -106 3 -110 3c-5 0 -60 -3 -87 -3c-9 0 -14 2 -14 7c0 3 2 7 7 7c8 0 19 2 27 4c17 4 20 20 23 45c4 35 5 102 5 184v150c0 132 0 156 -2 183
c-2 29 -9 42 -28 46c-10 2 -21 3 -27 3c-4 0 -7 4 -7 7c0 5 4 7 14 7c29 0 84 -2 89 -2c4 0 61 2 88 2c10 0 14 -2 14 -7c0 -3 -4 -7 -7 -7c-6 0 -12 0 -22 -2c-24 -5 -29 -17 -31 -47c-1 -27 -1 -51 -1 -183z" />
    <glyph glyph-name="J.sc" unicode="&#xf76a;" horiz-adv-x="369" 
d="M235 394v-204c0 -138 -3 -191 -29 -251c-19 -43 -58 -83 -129 -130c-12 -8 -27 -17 -36 -22c-1 0 -3 -1 -6 -1c-2 0 -6 1 -6 5c0 5 3 9 11 14c11 6 23 16 31 23c57 57 84 101 84 320v246c0 132 0 156 -2 183c-2 29 -7 43 -36 47c-7 1 -22 2 -30 2c-3 0 -7 4 -7 7
c0 5 4 7 14 7c40 0 97 -2 102 -2c4 0 59 2 86 2c10 0 14 -2 14 -7c0 -3 -4 -7 -7 -7c-6 0 -12 0 -22 -2c-24 -5 -29 -17 -31 -47c-1 -27 -1 -51 -1 -183z" />
    <glyph glyph-name="K.sc" unicode="&#xf76b;" horiz-adv-x="666" 
d="M155 244v150c0 132 0 156 -2 183c-2 29 -7 43 -36 47c-7 1 -22 2 -30 2c-3 0 -7 4 -7 7c0 5 4 7 14 7c40 0 94 -2 99 -2c8 0 61 2 87 2c10 0 14 -2 14 -7c0 -3 -3 -7 -7 -7c-6 0 -11 0 -22 -2c-23 -5 -29 -17 -31 -47c-2 -27 -2 -51 -2 -183v-51h4c14 16 171 171 204 205
c25 25 48 47 48 61c0 11 -4 16 -11 17c-5 1 -8 5 -8 8c0 4 4 6 10 6c18 0 45 -2 66 -2c5 0 63 2 85 2c9 0 13 -2 13 -6s-2 -7 -9 -7c-13 0 -32 -5 -49 -12c-36 -16 -53 -35 -92 -72c-22 -20 -172 -164 -191 -185c23 -25 206 -208 242 -241c74 -66 84 -77 126 -94
c23 -9 48 -12 54 -12s11 -3 11 -7s-4 -7 -19 -7h-45c-25 0 -41 0 -61 2c-46 4 -69 23 -107 52c-40 31 -225 226 -267 276h-4v-83c0 -82 0 -149 4 -184c3 -25 7 -41 34 -45c12 -2 26 -4 34 -4c5 0 7 -4 7 -7c0 -4 -4 -7 -14 -7c-43 0 -96 3 -103 3s-60 -3 -87 -3
c-9 0 -14 2 -14 7c0 3 2 7 7 7c8 0 19 2 27 4c17 4 19 20 23 45c5 35 5 102 5 184z" />
    <glyph glyph-name="L.sc" unicode="&#xf76c;" 
d="M235 394v-152c0 -125 2 -176 18 -191c14 -14 48 -20 117 -20c46 0 85 1 106 26c11 13 18 31 21 48c1 6 4 11 9 11c4 0 6 -4 6 -13s-6 -60 -13 -85c-6 -20 -9 -23 -56 -23c-63 0 -112 1 -153 3c-40 1 -70 2 -96 2c-4 0 -19 0 -36 -1c-18 -1 -37 -2 -51 -2
c-9 0 -14 2 -14 7c0 3 2 7 7 7c8 0 19 2 27 4c17 4 19 20 23 45c5 35 5 102 5 184v150c0 132 0 156 -2 183c-2 29 -7 43 -36 47c-7 1 -22 2 -30 2c-3 0 -7 4 -7 7c0 5 4 7 14 7c40 0 95 -2 100 -2c4 0 70 2 97 2c9 0 14 -2 14 -7c0 -3 -4 -6 -7 -6c-6 0 -19 -1 -29 -2
c-26 -5 -31 -18 -33 -48c-1 -27 -1 -51 -1 -183z" />
    <glyph glyph-name="M.sc" unicode="&#xf76d;" horiz-adv-x="924" 
d="M754 629l60 -522c3 -30 9 -76 45 -88c25 -8 48 -8 57 -8c4 0 7 -2 7 -6c0 -5 -8 -8 -18 -8c-20 0 -118 2 -150 5c-21 2 -25 5 -25 9c0 3 2 6 6 7c5 1 6 14 4 30l-42 430h-2l-212 -434c-18 -37 -23 -45 -31 -45s-13 8 -30 39c-23 42 -81 151 -103 197
c-26 54 -97 197 -112 232h-4l-34 -384c-1 -13 -1 -29 -1 -43c0 -13 8 -21 21 -24c15 -4 28 -5 34 -5c3 0 7 -3 7 -6c0 -6 -6 -8 -16 -8c-33 0 -75 3 -82 3c-8 0 -50 -3 -74 -3c-9 0 -15 2 -15 8c0 3 4 6 9 6c7 0 13 1 26 3c29 5 30 36 34 68l64 555c1 9 5 15 10 15
c6 0 13 -3 18 -13l266 -528l256 527c4 8 8 14 14 14s11 -7 13 -23z" />
    <glyph glyph-name="N.sc" unicode="&#xf76e;" horiz-adv-x="833" 
d="M182 514l10 -401c2 -70 10 -91 34 -97c16 -4 36 -5 44 -5c4 0 7 -3 7 -7c0 -5 -6 -7 -16 -7c-50 0 -85 3 -93 3s-45 -3 -85 -3c-9 0 -14 1 -14 7c0 4 3 7 7 7c7 0 23 1 36 5c22 6 25 29 25 106v487c0 34 5 43 12 43c10 0 25 -17 34 -26c14 -14 142 -150 278 -290
c87 -90 181 -191 208 -219l-9 426c-1 55 -6 74 -33 79c-16 3 -36 4 -43 4c-6 0 -7 5 -7 8c0 5 7 6 17 6c40 0 82 -2 92 -2s39 2 75 2c9 0 16 -1 16 -6c0 -3 -4 -8 -10 -8c-4 0 -11 0 -21 -2c-29 -6 -31 -23 -31 -74l-2 -498c0 -56 -1 -61 -7 -61c-9 0 -18 7 -67 52
c-9 8 -136 133 -229 230c-102 107 -201 211 -228 241z" />
    <glyph glyph-name="O.sc" unicode="&#xf76f;" horiz-adv-x="808" 
d="M55 320c0 137 106 332 349 332c198 0 348 -121 348 -319c0 -190 -141 -347 -353 -347c-241 0 -344 181 -344 334zM146 343c0 -198 119 -322 278 -322c79 0 238 42 238 288c0 204 -124 311 -263 311c-147 0 -253 -92 -253 -277z" />
    <glyph glyph-name="P.sc" unicode="&#xf770;" horiz-adv-x="586" 
d="M155 244v150c0 132 0 156 -2 183c-2 29 -7 43 -36 47c-7 1 -22 2 -30 2c-3 0 -7 4 -7 7c0 5 4 7 14 7c40 0 95 -2 102 -2c19 0 85 2 125 2c113 0 153 -35 168 -48c20 -18 44 -56 44 -102c0 -122 -92 -203 -227 -203c-5 0 -20 0 -25 1c-4 0 -9 4 -9 8c0 7 5 9 23 9
c95 0 163 60 163 137c0 28 -3 83 -50 129c-46 46 -99 41 -119 41c-15 0 -40 -4 -49 -6c-5 -1 -7 -7 -7 -16v-346c0 -82 0 -149 4 -184c3 -25 8 -41 35 -45c12 -2 31 -4 39 -4c5 0 7 -4 7 -7c0 -4 -4 -7 -14 -7c-48 0 -106 3 -110 3c-3 0 -60 -3 -87 -3c-9 0 -14 2 -14 7
c0 3 2 7 7 7c8 0 19 2 27 4c17 4 19 20 23 45c5 35 5 102 5 184z" />
    <glyph glyph-name="Q.sc" unicode="&#xf771;" horiz-adv-x="810" 
d="M684 -67l-146 79c-32 -16 -92 -26 -139 -26c-243 0 -345 181 -345 334c0 137 106 332 349 332c198 0 348 -122 348 -319c0 -149 -97 -249 -155 -285l180 -89c192 -95 325 -100 369 -100s111 11 172 33c6 2 10 3 13 3s5 -4 5 -6c0 -4 -2 -7 -7 -9
c-50 -22 -150 -59 -280 -59c-107 0 -222 35 -364 112zM144 343c0 -196 119 -322 278 -322c79 0 239 43 239 288c0 202 -125 311 -264 311c-147 0 -253 -91 -253 -277z" />
    <glyph glyph-name="Abreve" unicode="&#x102;" horiz-adv-x="700" 
d="M95 107l227 621c12 33 16 39 22 39s10 -5 22 -36c15 -38 172 -451 233 -603c36 -89 65 -105 86 -111c15 -5 30 -6 40 -6c6 0 10 -1 10 -6c0 -6 -9 -8 -20 -8c-15 0 -88 0 -157 2c-19 1 -30 1 -30 7c0 4 3 6 7 7c6 2 12 11 6 27l-93 246c-2 4 -4 6 -9 6h-215
c-5 0 -8 -3 -10 -8l-60 -177c-9 -25 -14 -49 -14 -67c0 -20 21 -29 38 -29h10c7 0 10 -2 10 -6c0 -6 -6 -8 -15 -8c-24 0 -67 3 -78 3s-66 -3 -113 -3c-13 0 -19 2 -19 8c0 4 4 6 9 6c7 0 21 1 29 2c46 6 66 44 84 94zM235 328h191c5 0 5 3 4 7l-95 270c-5 15 -10 15 -15 0
l-88 -270c-2 -5 0 -7 3 -7zM211 919l32 24c3 2 6 5 9 5c6 0 7 -9 13 -16c34 -44 81 -47 94 -47c41 0 69 14 88 29c29 21 34 32 41 32c5 0 8 -3 8 -8c0 -11 -39 -50 -62 -64c-31 -19 -58 -29 -101 -29c-31 0 -66 10 -93 29c-15 11 -36 29 -36 36c0 5 4 7 7 9z" />
    <glyph glyph-name="Amacron" unicode="&#x100;" horiz-adv-x="700" 
d="M95 107l227 621c12 33 16 39 22 39s10 -5 22 -36c15 -38 172 -451 233 -603c36 -89 65 -105 86 -111c15 -5 30 -6 40 -6c6 0 10 -1 10 -6c0 -6 -9 -8 -20 -8c-15 0 -88 0 -157 2c-19 1 -30 1 -30 7c0 4 3 6 7 7c6 2 12 11 6 27l-93 246c-2 4 -4 6 -9 6h-215
c-5 0 -8 -3 -10 -8l-60 -177c-9 -25 -14 -49 -14 -67c0 -20 21 -29 38 -29h10c7 0 10 -2 10 -6c0 -6 -6 -8 -15 -8c-24 0 -67 3 -78 3s-66 -3 -113 -3c-13 0 -19 2 -19 8c0 4 4 6 9 6c7 0 21 1 29 2c46 6 66 44 84 94zM235 328h191c5 0 5 3 4 7l-95 270c-5 15 -10 15 -15 0
l-88 -270c-2 -5 0 -7 3 -7zM238 900h235c8 0 10 -5 8 -10l-8 -22c-1 -4 -4 -6 -9 -6h-235c-7 0 -11 1 -10 7l8 25c1 5 5 6 11 6z" />
    <glyph glyph-name="Aogonek" unicode="&#x104;" horiz-adv-x="700" 
d="M235 328h191c5 0 5 3 4 7l-95 270c-5 15 -10 15 -15 0l-88 -270c-2 -5 0 -7 3 -7zM511 -129c0 -32 23 -50 51 -50c31 0 62 36 68 36s8 -3 8 -6c0 -7 -3 -8 -8 -14c-10 -11 -61 -62 -118 -62c-53 0 -79 31 -79 70c0 70 79 133 101 152c8 7 11 17 11 23s-1 11 -4 20
l-93 246c-2 4 -4 6 -9 6h-215c-5 0 -8 -3 -10 -8l-60 -177c-9 -25 -14 -49 -14 -67c0 -20 21 -29 38 -29h10c7 0 10 -2 10 -6c0 -6 -6 -8 -15 -8c-24 0 -67 3 -78 3s-66 -3 -113 -3c-13 0 -19 2 -19 8c0 4 4 6 9 6c7 0 21 1 29 2c46 6 66 44 84 94l227 621
c12 33 16 39 22 39s10 -5 22 -36c15 -38 172 -451 233 -603c36 -89 65 -105 86 -111c15 -5 30 -6 40 -6c6 0 10 -1 10 -6c0 -6 -9 -8 -20 -8c-15 0 -127 11 -152 -7c-34 -25 -52 -87 -52 -119z" />
    <glyph glyph-name="Cacute" unicode="&#x106;" horiz-adv-x="805" 
d="M515 -17c-150 0 -251 37 -330 108c-97 87 -121 201 -121 296c0 67 23 184 112 273c60 60 151 107 305 107c40 0 96 -3 145 -12c38 -7 70 -13 102 -15c11 -1 13 -5 13 -11c0 -8 -3 -20 -5 -56c-2 -33 -2 -88 -3 -103s-3 -21 -9 -21c-7 0 -8 7 -8 21c0 39 -16 80 -42 102
c-35 30 -112 57 -200 57c-133 0 -195 -39 -230 -73c-73 -70 -90 -159 -90 -261c0 -191 147 -366 361 -366c75 0 134 9 174 50c21 22 34 66 37 84c2 11 4 15 10 15c5 0 7 -7 7 -15c0 -7 -12 -94 -22 -128c-6 -19 -8 -21 -26 -29c-40 -16 -116 -23 -180 -23zM575 933
c7 -10 14 -24 25 -44c5 -9 0 -12 -4 -12c-3 0 -13 2 -30 0c-49 -5 -119 -28 -152 -42c-7 -3 -13 -5 -15 -5s-5 2 -5 6c0 3 2 5 7 8c36 25 129 81 136 85c17 10 23 13 28 13c3 0 5 -2 10 -9z" />
    <glyph glyph-name="Ccaron" unicode="&#x10c;" horiz-adv-x="805" 
d="M515 -17c-150 0 -251 37 -330 108c-97 87 -121 201 -121 296c0 67 23 184 112 273c60 60 151 107 305 107c40 0 96 -3 145 -12c38 -7 70 -13 102 -15c11 -1 13 -5 13 -11c0 -8 -3 -20 -5 -56c-2 -33 -2 -88 -3 -103s-3 -21 -9 -21c-7 0 -8 7 -8 21c0 39 -16 80 -42 102
c-35 30 -112 57 -200 57c-133 0 -195 -39 -230 -73c-73 -70 -90 -159 -90 -261c0 -191 147 -366 361 -366c75 0 134 9 174 50c21 22 34 66 37 84c2 11 4 15 10 15c5 0 7 -7 7 -15c0 -7 -12 -94 -22 -128c-6 -19 -8 -21 -26 -29c-40 -16 -116 -23 -180 -23zM336 920l21 22
c4 4 6 6 9 6s5 -1 8 -5c20 -22 71 -63 84 -69c4 -2 7 -4 10 -4c4 0 8 1 16 5c23 12 61 43 85 63c8 7 15 10 18 10c4 0 7 -4 7 -8s-3 -7 -6 -11c-10 -10 -101 -94 -112 -104c-8 -7 -13 -10 -17 -10c-3 0 -7 3 -15 10c-8 6 -88 66 -101 76c-9 6 -12 8 -12 10c0 3 3 6 5 9z" />
    <glyph glyph-name="Dcaron" unicode="&#x10e;" horiz-adv-x="917" 
d="M178 287v176c0 156 0 184 -2 216c-2 34 -10 50 -43 57c-8 2 -25 3 -34 3c-4 0 -8 2 -8 6c0 6 5 8 16 8c45 0 108 -3 113 -3c12 0 75 3 135 3c99 0 282 9 401 -114c50 -52 97 -135 97 -254c0 -126 -52 -223 -108 -282c-43 -45 -133 -115 -303 -115c-43 0 -96 3 -139 6
c-44 3 -78 6 -83 6c-2 0 -19 0 -40 -1c-20 0 -43 -2 -58 -2c-11 0 -16 2 -16 8c0 3 2 6 8 6c9 0 21 2 30 4c20 4 25 26 29 55c5 42 5 121 5 217zM262 479v-124c0 -106 1 -198 2 -217c1 -25 3 -65 11 -76c13 -19 52 -40 170 -40c93 0 179 34 238 93c52 51 80 147 80 239
c0 127 -55 209 -96 252c-94 99 -208 113 -327 113c-20 0 -57 -3 -65 -7c-9 -4 -12 -9 -12 -20c-1 -34 -1 -136 -1 -213zM312 920l21 22c4 4 6 6 9 6s5 -1 8 -5c20 -22 71 -63 84 -69c4 -2 7 -4 10 -4c4 0 8 1 16 5c23 12 61 43 85 63c8 7 15 10 18 10c4 0 7 -4 7 -8
s-3 -7 -6 -11c-10 -10 -101 -94 -112 -104c-8 -7 -13 -10 -17 -10c-3 0 -7 3 -15 10c-8 6 -88 66 -101 76c-9 6 -12 8 -12 10c0 3 3 6 5 9z" />
    <glyph glyph-name="Dcroat" unicode="&#x110;" horiz-adv-x="917" 
d="M178 397v66c0 156 0 184 -2 216c-2 34 -10 50 -43 57c-8 2 -25 3 -34 3c-4 0 -8 2 -8 6c0 6 5 8 16 8c45 0 108 -3 113 -3c12 0 75 3 135 3c99 0 282 9 401 -114c50 -52 97 -135 97 -254c0 -126 -52 -223 -108 -282c-43 -45 -133 -115 -303 -115c-43 0 -96 3 -139 6
c-44 3 -78 6 -83 6c-2 0 -19 0 -40 -1c-20 0 -43 -2 -58 -2c-11 0 -16 2 -16 8c0 3 2 6 8 6c9 0 21 2 30 4c20 4 25 26 29 55c5 42 5 121 5 217v74h-88c-8 0 -8 4 -7 11l3 16c2 7 5 9 13 9h79zM262 360v-53c0 -85 1 -153 2 -169c1 -25 3 -65 11 -76c13 -19 52 -40 170 -40
c93 0 179 34 238 93c52 51 80 147 80 239c0 127 -55 209 -96 252c-94 99 -207 113 -328 113c-23 0 -56 -3 -64 -7c-9 -4 -12 -9 -12 -20l-1 -294h205c7 0 8 -4 7 -11l-4 -19c-1 -7 -7 -8 -13 -8h-195z" />
    <glyph glyph-name="Ecaron" unicode="&#x11a;" horiz-adv-x="610" 
d="M178 287v176c0 156 0 184 -2 216c-2 34 -10 50 -43 57c-8 2 -25 3 -34 3c-4 0 -8 2 -8 6c0 6 5 8 16 8c23 0 50 0 72 -1l41 -2c7 0 206 0 229 1c19 1 35 3 43 5c5 1 9 5 14 5c3 0 4 -4 4 -9c0 -7 -5 -19 -8 -47c-1 -10 -3 -54 -5 -66c-1 -5 -3 -11 -7 -11
c-6 0 -8 5 -8 13c0 7 -1 24 -6 36c-7 16 -17 28 -71 34c-17 2 -126 3 -137 3c-4 0 -6 -3 -6 -10v-276c0 -7 1 -10 6 -10c13 0 136 0 159 2c24 2 38 4 47 14c7 8 11 13 15 13c3 0 5 -2 5 -8s-5 -23 -8 -56c-2 -20 -4 -57 -4 -64c0 -8 0 -19 -7 -19c-5 0 -7 4 -7 9
c0 10 0 20 -4 33c-4 14 -13 31 -52 35c-27 3 -126 5 -143 5c-5 0 -7 -3 -7 -7v-88c0 -34 -1 -150 0 -171c3 -69 18 -82 116 -82c26 0 70 0 96 11s38 31 45 72c2 11 4 15 9 15c6 0 6 -8 6 -15c0 -8 -8 -76 -13 -97c-7 -26 -15 -26 -54 -26c-75 0 -130 2 -169 3
c-39 2 -63 3 -78 3c-2 0 -19 0 -40 -1c-20 0 -43 -2 -58 -2c-11 0 -16 2 -16 8c0 3 2 6 8 6c9 0 21 2 30 4c20 4 25 26 29 55c5 42 5 121 5 217zM208 920l21 22c4 4 6 6 9 6s5 -1 8 -5c20 -22 71 -63 84 -69c4 -2 7 -4 10 -4c4 0 8 1 16 5c23 12 61 43 85 63
c8 7 15 10 18 10c4 0 7 -4 7 -8s-3 -7 -6 -11c-10 -10 -101 -94 -112 -104c-8 -7 -13 -10 -17 -10c-3 0 -7 3 -15 10c-8 6 -88 66 -101 76c-9 6 -12 8 -12 10c0 3 3 6 5 9z" />
    <glyph glyph-name="Edotaccent" unicode="&#x116;" horiz-adv-x="610" 
d="M178 287v176c0 156 0 184 -2 216c-2 34 -10 50 -43 57c-8 2 -25 3 -34 3c-4 0 -8 2 -8 6c0 6 5 8 16 8c23 0 50 0 72 -1l41 -2c7 0 206 0 229 1c19 1 35 3 43 5c5 1 9 5 14 5c3 0 4 -4 4 -9c0 -7 -5 -19 -8 -47c-1 -10 -3 -54 -5 -66c-1 -5 -3 -11 -7 -11
c-6 0 -8 5 -8 13c0 7 -1 24 -6 36c-7 16 -17 28 -71 34c-17 2 -126 3 -137 3c-4 0 -6 -3 -6 -10v-276c0 -7 1 -10 6 -10c13 0 136 0 159 2c24 2 38 4 47 14c7 8 11 13 15 13c3 0 5 -2 5 -8s-5 -23 -8 -56c-2 -20 -4 -57 -4 -64c0 -8 0 -19 -7 -19c-5 0 -7 4 -7 9
c0 10 0 20 -4 33c-4 14 -13 31 -52 35c-27 3 -126 5 -143 5c-5 0 -7 -3 -7 -7v-88c0 -34 -1 -150 0 -171c3 -69 18 -82 116 -82c26 0 70 0 96 11s38 31 45 72c2 11 4 15 9 15c6 0 6 -8 6 -15c0 -8 -8 -76 -13 -97c-7 -26 -15 -26 -54 -26c-75 0 -130 2 -169 3
c-39 2 -63 3 -78 3c-2 0 -19 0 -40 -1c-20 0 -43 -2 -58 -2c-11 0 -16 2 -16 8c0 3 2 6 8 6c9 0 21 2 30 4c20 4 25 26 29 55c5 42 5 121 5 217zM329 830c-36 0 -51 28 -51 51c0 22 15 52 51 52c29 0 52 -19 52 -49s-21 -54 -52 -54z" />
    <glyph glyph-name="Emacron" unicode="&#x112;" horiz-adv-x="610" 
d="M178 287v176c0 156 0 184 -2 216c-2 34 -10 50 -43 57c-8 2 -25 3 -34 3c-4 0 -8 2 -8 6c0 6 5 8 16 8c23 0 50 0 72 -1l41 -2c7 0 206 0 229 1c19 1 35 3 43 5c5 1 9 5 14 5c3 0 4 -4 4 -9c0 -7 -5 -19 -8 -47c-1 -10 -3 -54 -5 -66c-1 -5 -3 -11 -7 -11
c-6 0 -8 5 -8 13c0 7 -1 24 -6 36c-7 16 -17 28 -71 34c-17 2 -126 3 -137 3c-4 0 -6 -3 -6 -10v-276c0 -7 1 -10 6 -10c13 0 136 0 159 2c24 2 38 4 47 14c7 8 11 13 15 13c3 0 5 -2 5 -8s-5 -23 -8 -56c-2 -20 -4 -57 -4 -64c0 -8 0 -19 -7 -19c-5 0 -7 4 -7 9
c0 10 0 20 -4 33c-4 14 -13 31 -52 35c-27 3 -126 5 -143 5c-5 0 -7 -3 -7 -7v-88c0 -34 -1 -150 0 -171c3 -69 18 -82 116 -82c26 0 70 0 96 11s38 31 45 72c2 11 4 15 9 15c6 0 6 -8 6 -15c0 -8 -8 -76 -13 -97c-7 -26 -15 -26 -54 -26c-75 0 -130 2 -169 3
c-39 2 -63 3 -78 3c-2 0 -19 0 -40 -1c-20 0 -43 -2 -58 -2c-11 0 -16 2 -16 8c0 3 2 6 8 6c9 0 21 2 30 4c20 4 25 26 29 55c5 42 5 121 5 217zM212 900h235c8 0 10 -5 8 -10l-8 -22c-1 -4 -4 -6 -9 -6h-235c-7 0 -11 1 -10 7l8 25c1 5 5 6 11 6z" />
    <glyph glyph-name="Eogonek" unicode="&#x118;" horiz-adv-x="610" 
d="M391 -129c0 -32 23 -50 51 -50c31 0 62 36 68 36s8 -3 8 -6c0 -7 -3 -8 -8 -14c-10 -11 -61 -62 -118 -62c-53 0 -79 31 -79 70c0 80 92 140 98 149c-46 1 -85 2 -113 3c-39 2 -63 3 -78 3c-2 0 -19 0 -40 -1c-20 0 -43 -2 -58 -2c-11 0 -16 2 -16 8c0 3 2 6 8 6
c9 0 21 2 30 4c20 4 25 26 29 55c5 42 5 121 5 217v176c0 156 0 184 -2 216c-2 34 -10 50 -43 57c-8 2 -25 3 -34 3c-4 0 -8 2 -8 6c0 6 5 8 16 8c23 0 50 0 72 -1l41 -2c7 0 206 0 229 1c19 1 35 3 43 5c5 1 9 5 14 5c3 0 4 -4 4 -9c0 -7 -5 -19 -8 -47
c-1 -10 -3 -54 -5 -66c-1 -5 -3 -11 -7 -11c-6 0 -8 5 -8 13c0 7 -1 24 -6 36c-7 16 -17 28 -71 34c-17 2 -126 3 -137 3c-4 0 -6 -3 -6 -10v-276c0 -7 1 -10 6 -10c13 0 136 0 159 2c24 2 38 4 47 14c7 8 11 13 15 13c3 0 5 -2 5 -8s-5 -23 -8 -56c-2 -20 -4 -57 -4 -64
c0 -8 0 -19 -7 -19c-5 0 -7 4 -7 9c0 10 0 20 -4 33c-4 14 -13 31 -52 35c-27 3 -126 5 -143 5c-5 0 -7 -3 -7 -7v-88c0 -34 -1 -150 0 -171c3 -69 18 -82 116 -82c26 0 70 0 96 11s38 31 45 72c2 11 4 15 9 15c6 0 6 -8 6 -15c0 -8 -8 -76 -13 -97c-7 -26 -55 -14 -78 -30
c-35 -25 -52 -88 -52 -119z" />
    <glyph glyph-name="Gbreve" unicode="&#x11e;" horiz-adv-x="862" 
d="M653 82v170c0 81 -5 92 -45 103c-8 2 -25 3 -34 3c-4 0 -8 2 -8 6c0 6 5 8 16 8c45 0 108 -3 113 -3s68 3 98 3c11 0 16 -2 16 -8c0 -4 -4 -6 -8 -6c-7 0 -13 -1 -25 -3c-27 -5 -35 -22 -37 -57c-2 -32 -2 -62 -2 -104v-112c0 -45 -1 -47 -13 -54
c-64 -34 -154 -45 -212 -45c-76 0 -218 10 -329 107c-61 53 -119 160 -119 285c0 160 78 273 167 329c90 56 189 63 266 63c63 0 134 -13 153 -17c21 -5 56 -9 81 -10c10 -1 12 -5 12 -9c0 -14 -7 -42 -7 -142c0 -16 -2 -21 -9 -21c-5 0 -6 6 -7 15c-1 14 -6 42 -21 66
c-25 38 -106 81 -235 81c-63 0 -138 -6 -214 -66c-58 -46 -99 -137 -99 -254c0 -141 71 -243 106 -277c79 -77 170 -107 262 -107c36 0 88 6 114 21c13 7 20 18 20 35zM332 904l32 24c3 2 6 5 9 5c6 0 7 -9 13 -16c34 -44 81 -47 94 -47c41 0 69 14 88 29c29 21 34 32 41 32
c5 0 8 -3 8 -8c0 -11 -39 -50 -62 -64c-31 -19 -58 -29 -101 -29c-31 0 -66 10 -93 29c-15 11 -36 29 -36 36c0 5 4 7 7 9z" />
    <glyph glyph-name="Gcommaaccent" unicode="&#x122;" horiz-adv-x="862" 
d="M653 82v170c0 81 -5 92 -45 103c-8 2 -25 3 -34 3c-4 0 -8 2 -8 6c0 6 5 8 16 8c45 0 108 -3 113 -3s68 3 98 3c11 0 16 -2 16 -8c0 -4 -4 -6 -8 -6c-7 0 -13 -1 -25 -3c-27 -5 -35 -22 -37 -57c-2 -32 -2 -62 -2 -104v-112c0 -45 -1 -47 -13 -54
c-64 -34 -154 -45 -212 -45c-76 0 -218 10 -329 107c-61 53 -119 160 -119 285c0 160 78 273 167 329c90 56 189 63 266 63c63 0 134 -13 153 -17c21 -5 56 -9 81 -10c10 -1 12 -5 12 -9c0 -14 -7 -42 -7 -142c0 -16 -2 -21 -9 -21c-5 0 -6 6 -7 15c-1 14 -6 42 -21 66
c-25 38 -106 81 -235 81c-63 0 -138 -6 -214 -66c-58 -46 -99 -137 -99 -254c0 -141 71 -243 106 -277c79 -77 170 -107 262 -107c36 0 88 6 114 21c13 7 20 18 20 35zM472 -168c0 44 -32 56 -32 67c0 27 34 52 59 52c5 0 8 -3 17 -18c12 -19 16 -32 16 -41
c0 -8 -4 -25 -9 -37c-8 -22 -34 -73 -61 -102c-4 -5 -9 -9 -13 -9c-3 0 -6 3 -6 7s4 9 6 13c16 28 23 50 23 68z" />
    <glyph glyph-name="Imacron" unicode="&#x12a;" horiz-adv-x="440" 
d="M262 463v-176c0 -96 0 -175 5 -217c3 -29 9 -51 39 -55c14 -2 36 -4 45 -4c6 0 8 -3 8 -6c0 -5 -5 -8 -16 -8c-55 0 -118 3 -123 3s-68 -3 -98 -3c-11 0 -16 2 -16 8c0 3 2 6 8 6c9 0 21 2 30 4c20 4 25 26 29 55c5 42 5 121 5 217v176c0 156 0 184 -2 216
c-2 34 -12 51 -34 56c-11 3 -24 4 -31 4c-4 0 -8 2 -8 6c0 6 5 8 16 8c33 0 96 -3 101 -3s68 3 98 3c11 0 16 -2 16 -8c0 -4 -4 -6 -8 -6c-7 0 -13 -1 -25 -3c-27 -5 -35 -22 -37 -57c-2 -32 -2 -60 -2 -216zM108 900h235c8 0 10 -5 8 -10l-8 -22c-1 -4 -4 -6 -9 -6h-235
c-7 0 -11 1 -10 7l8 25c1 5 5 6 11 6z" />
    <glyph glyph-name="Iogonek" unicode="&#x12e;" horiz-adv-x="440" 
d="M265 -9c-28 -26 -53 -65 -53 -120c0 -32 23 -50 51 -50c31 0 62 36 68 36s8 -3 8 -6c0 -7 -3 -8 -8 -14c-10 -11 -61 -62 -118 -62c-53 0 -79 31 -79 70c0 74 90 143 106 154c-11 0 -18 1 -20 1s-19 0 -40 -1c-20 0 -43 -2 -58 -2c-11 0 -16 2 -16 8c0 3 2 6 8 6
c9 0 21 2 30 4c20 4 25 26 29 55c5 42 5 121 5 217v176c0 156 0 184 -2 216c-2 34 -12 51 -34 56c-11 3 -24 4 -31 4c-4 0 -8 2 -8 6c0 6 5 8 16 8c33 0 96 -3 101 -3s68 3 98 3c11 0 16 -2 16 -8c0 -4 -4 -6 -8 -6c-7 0 -13 -1 -25 -3c-27 -5 -35 -22 -37 -57
c-2 -32 -2 -60 -2 -216v-176c0 -96 0 -175 5 -217c3 -29 9 -51 39 -55c14 -2 36 -4 45 -4c6 0 8 -3 8 -6c0 -5 -5 -8 -16 -8c-25 0 -61 10 -78 -6z" />
    <glyph glyph-name="Kcommaaccent" unicode="&#x136;" horiz-adv-x="752" 
d="M178 287v176c0 156 0 184 -2 216c-2 34 -10 50 -43 57c-8 2 -25 3 -34 3c-4 0 -8 2 -8 6c0 6 5 8 16 8c45 0 104 -3 110 -3c9 0 67 3 97 3c11 0 16 -2 16 -8c0 -4 -4 -6 -8 -6c-7 0 -13 -1 -25 -3c-27 -5 -35 -22 -37 -57c-2 -32 -2 -60 -2 -216v-60h4
c17 19 198 203 234 242c28 29 54 55 54 72c0 12 -5 18 -13 21c-5 2 -9 4 -9 8c0 5 5 7 12 7c20 0 51 -3 75 -3c5 0 71 3 96 3c11 0 15 -2 15 -7s-2 -7 -10 -7c-15 0 -36 -5 -56 -14c-41 -18 -63 -43 -108 -86c-25 -24 -199 -194 -220 -219c26 -29 234 -244 275 -282
c84 -78 101 -94 149 -114c26 -11 55 -13 62 -13s13 -2 13 -6c0 -5 -5 -8 -22 -8h-51c-28 0 -47 0 -69 2c-53 5 -78 27 -121 61c-45 37 -257 266 -305 325h-5v-98c0 -96 0 -175 5 -217c3 -29 9 -51 39 -55c14 -2 30 -4 39 -4c6 0 8 -3 8 -6c0 -5 -5 -8 -16 -8
c-49 0 -107 3 -115 3s-66 -3 -96 -3c-11 0 -16 2 -16 8c0 3 2 6 8 6c9 0 21 2 30 4c20 4 25 26 29 55c5 42 5 121 5 217zM427 -148c0 44 -32 56 -32 67c0 27 34 52 59 52c5 0 8 -3 17 -18c12 -19 16 -32 16 -41c0 -8 -4 -25 -9 -37c-8 -22 -34 -73 -61 -102
c-4 -5 -9 -9 -13 -9c-3 0 -6 3 -6 7s4 9 6 13c16 28 23 50 23 68z" />
    <glyph glyph-name="Lacute" unicode="&#x139;" horiz-adv-x="592" 
d="M262 463v-178c0 -147 4 -211 22 -229c16 -16 42 -23 120 -23c53 0 97 1 121 30c13 16 23 41 26 60c1 8 3 13 9 13c5 0 6 -4 6 -15s-7 -71 -15 -100c-7 -23 -10 -27 -63 -27c-72 0 -124 2 -166 3c-42 2 -73 3 -102 3c-4 0 -21 -1 -41 -1c-20 -1 -42 -2 -57 -2
c-11 0 -16 2 -16 8c0 3 2 6 8 6c9 0 21 2 30 4c20 4 25 26 29 55c5 42 5 121 5 217v176c0 156 0 184 -2 216c-2 34 -10 50 -43 57c-8 2 -25 3 -34 3c-4 0 -8 2 -8 6c0 6 5 8 16 8c45 0 108 -3 113 -3s78 3 108 3c11 0 16 -2 16 -8c0 -4 -4 -6 -8 -6c-7 0 -21 -1 -33 -3
c-29 -5 -37 -22 -39 -57c-2 -32 -2 -60 -2 -216zM398 933c7 -10 14 -24 25 -44c5 -9 0 -12 -4 -12c-3 0 -13 2 -30 0c-49 -5 -119 -28 -152 -42c-7 -3 -13 -5 -15 -5s-5 2 -5 6c0 3 2 5 7 8c36 25 129 81 136 85c17 10 23 13 28 13c3 0 5 -2 10 -9z" />
    <glyph glyph-name="Lcaron" unicode="&#x13d;" horiz-adv-x="592" 
d="M262 463v-178c0 -147 4 -211 22 -229c16 -16 42 -23 120 -23c53 0 97 1 121 30c13 16 23 41 26 60c1 8 3 13 9 13c5 0 6 -4 6 -15s-7 -71 -15 -100c-7 -23 -10 -27 -63 -27c-72 0 -124 2 -166 3c-42 2 -73 3 -102 3c-4 0 -21 -1 -41 -1c-20 -1 -42 -2 -57 -2
c-11 0 -16 2 -16 8c0 3 2 6 8 6c9 0 21 2 30 4c20 4 25 26 29 55c5 42 5 121 5 217v176c0 156 0 184 -2 216c-2 34 -10 50 -43 57c-8 2 -25 3 -34 3c-4 0 -8 2 -8 6c0 6 5 8 16 8c45 0 108 -3 113 -3s78 3 108 3c11 0 16 -2 16 -8c0 -4 -4 -6 -8 -6c-7 0 -21 -1 -33 -3
c-29 -5 -37 -22 -39 -57c-2 -32 -2 -60 -2 -216zM477 637c0 44 -32 56 -32 67c0 27 34 52 59 52c5 0 8 -3 17 -18c12 -19 16 -32 16 -41c0 -8 -4 -25 -9 -37c-8 -22 -34 -73 -61 -102c-4 -5 -9 -9 -13 -9c-3 0 -6 3 -6 7s4 9 6 13c16 28 23 50 23 68z" />
    <glyph glyph-name="Lcommaaccent" unicode="&#x13b;" horiz-adv-x="592" 
d="M262 463v-178c0 -147 4 -211 22 -229c16 -16 42 -23 120 -23c53 0 97 1 121 30c13 16 23 41 26 60c1 8 3 13 9 13c5 0 6 -4 6 -15s-7 -71 -15 -100c-7 -23 -10 -27 -63 -27c-72 0 -124 2 -166 3c-42 2 -73 3 -102 3c-4 0 -21 -1 -41 -1c-20 -1 -42 -2 -57 -2
c-11 0 -16 2 -16 8c0 3 2 6 8 6c9 0 21 2 30 4c20 4 25 26 29 55c5 42 5 121 5 217v176c0 156 0 184 -2 216c-2 34 -10 50 -43 57c-8 2 -25 3 -34 3c-4 0 -8 2 -8 6c0 6 5 8 16 8c45 0 108 -3 113 -3s78 3 108 3c11 0 16 -2 16 -8c0 -4 -4 -6 -8 -6c-7 0 -21 -1 -33 -3
c-29 -5 -37 -22 -39 -57c-2 -32 -2 -60 -2 -216zM352 -168c0 44 -32 56 -32 67c0 27 34 52 59 52c5 0 8 -3 17 -18c12 -19 16 -32 16 -41c0 -8 -4 -25 -9 -37c-8 -22 -34 -73 -61 -102c-4 -5 -9 -9 -13 -9c-3 0 -6 3 -6 7s4 9 6 13c16 28 23 50 23 68z" />
    <glyph glyph-name="Nacute" unicode="&#x143;" horiz-adv-x="947" 
d="M192 612l13 -479c2 -82 12 -108 39 -116c19 -5 41 -6 50 -6c5 0 8 -2 8 -6c0 -6 -6 -8 -18 -8c-57 0 -97 3 -106 3s-51 -3 -96 -3c-10 0 -16 1 -16 8c0 4 3 6 8 6c8 0 26 1 41 6c25 7 30 36 30 127l1 573c0 39 3 50 11 50s25 -22 35 -32c15 -17 164 -178 318 -343
c99 -106 208 -228 240 -261l-11 508c-1 65 -8 87 -39 95c-18 4 -41 5 -49 5c-7 0 -8 3 -8 7c0 6 8 7 20 7c45 0 93 -3 104 -3s44 3 85 3c11 0 18 -1 18 -7c0 -4 -4 -7 -11 -7c-5 0 -12 0 -24 -3c-33 -7 -37 -29 -37 -89l-2 -586c0 -66 -2 -71 -9 -71c-8 0 -20 11 -73 64
c-11 10 -155 157 -261 271c-116 125 -229 251 -261 287zM586 908c7 -10 14 -24 25 -44c5 -9 0 -12 -4 -12c-3 0 -13 2 -30 0c-49 -5 -119 -28 -152 -42c-7 -3 -13 -5 -15 -5s-5 2 -5 6c0 3 2 5 7 8c36 25 129 81 136 85c17 10 23 13 28 13c3 0 5 -2 10 -9z" />
    <glyph glyph-name="Ncaron" unicode="&#x147;" horiz-adv-x="947" 
d="M192 612l13 -479c2 -82 12 -108 39 -116c19 -5 41 -6 50 -6c5 0 8 -2 8 -6c0 -6 -6 -8 -18 -8c-57 0 -97 3 -106 3s-51 -3 -96 -3c-10 0 -16 1 -16 8c0 4 3 6 8 6c8 0 26 1 41 6c25 7 30 36 30 127l1 573c0 39 3 50 11 50s25 -22 35 -32c15 -17 164 -178 318 -343
c99 -106 208 -228 240 -261l-11 508c-1 65 -8 87 -39 95c-18 4 -41 5 -49 5c-7 0 -8 3 -8 7c0 6 8 7 20 7c45 0 93 -3 104 -3s44 3 85 3c11 0 18 -1 18 -7c0 -4 -4 -7 -11 -7c-5 0 -12 0 -24 -3c-33 -7 -37 -29 -37 -89l-2 -586c0 -66 -2 -71 -9 -71c-8 0 -20 11 -73 64
c-11 10 -155 157 -261 271c-116 125 -229 251 -261 287zM352 900l21 22c4 4 6 6 9 6s5 -1 8 -5c20 -22 71 -63 84 -69c4 -2 7 -4 10 -4c4 0 8 1 16 5c23 12 61 43 85 63c8 7 15 10 18 10c4 0 7 -4 7 -8s-3 -7 -6 -11c-10 -10 -101 -94 -112 -104c-8 -7 -13 -10 -17 -10
c-3 0 -7 3 -15 10c-8 6 -88 66 -101 76c-9 6 -12 8 -12 10c0 3 3 6 5 9z" />
    <glyph glyph-name="Ncommaaccent" unicode="&#x145;" horiz-adv-x="947" 
d="M192 612l13 -479c2 -82 12 -108 39 -116c19 -5 41 -6 50 -6c5 0 8 -2 8 -6c0 -6 -6 -8 -18 -8c-57 0 -97 3 -106 3s-51 -3 -96 -3c-10 0 -16 1 -16 8c0 4 3 6 8 6c8 0 26 1 41 6c25 7 30 36 30 127l1 573c0 39 3 50 11 50s25 -22 35 -32c15 -17 164 -178 318 -343
c99 -106 208 -228 240 -261l-11 508c-1 65 -8 87 -39 95c-18 4 -41 5 -49 5c-7 0 -8 3 -8 7c0 6 8 7 20 7c45 0 93 -3 104 -3s44 3 85 3c11 0 18 -1 18 -7c0 -4 -4 -7 -11 -7c-5 0 -12 0 -24 -3c-33 -7 -37 -29 -37 -89l-2 -586c0 -66 -2 -71 -9 -71c-8 0 -20 11 -73 64
c-11 10 -155 157 -261 271c-116 125 -229 251 -261 287zM470 -138c0 44 -32 56 -32 67c0 27 34 52 59 52c5 0 8 -3 17 -18c12 -19 16 -32 16 -41c0 -8 -4 -25 -9 -37c-8 -22 -34 -73 -61 -102c-4 -5 -9 -9 -13 -9c-3 0 -6 3 -6 7s4 9 6 13c16 28 23 50 23 68z" />
    <glyph glyph-name="Ohungarumlaut" unicode="&#x150;" horiz-adv-x="915" 
d="M64 376c0 162 118 391 394 391c225 0 393 -142 393 -375c0 -224 -158 -409 -399 -409c-274 0 -388 213 -388 393zM159 404c0 -233 140 -383 320 -383c90 0 276 52 276 343c0 240 -146 369 -304 369c-167 0 -292 -110 -292 -329zM445 943c10 13 13 20 17 20s8 -1 13 -3
c11 -5 23 -13 37 -22c7 -4 6 -8 3 -9c-4 -2 -16 -5 -30 -13c-30 -19 -74 -50 -98 -75c-7 -8 -10 -11 -14 -11c-3 0 -5 4 -3 9c3 9 66 93 75 104zM575 945c11 12 15 18 19 18s8 -1 14 -4c10 -6 20 -13 35 -25c5 -5 4 -9 1 -10s-17 -2 -31 -10c-34 -18 -82 -54 -106 -75
c-7 -8 -11 -9 -14 -9s-5 3 -3 8c3 9 76 97 85 107z" />
    <glyph glyph-name="Omacron" unicode="&#x14c;" horiz-adv-x="915" 
d="M64 376c0 162 118 391 394 391c225 0 393 -142 393 -375c0 -224 -158 -409 -399 -409c-274 0 -388 213 -388 393zM159 404c0 -233 140 -383 320 -383c90 0 276 52 276 343c0 240 -146 369 -304 369c-167 0 -292 -110 -292 -329zM345 900h235c8 0 10 -5 8 -10l-8 -22
c-1 -4 -4 -6 -9 -6h-235c-7 0 -11 1 -10 7l8 25c1 5 5 6 11 6z" />
    <glyph glyph-name="Racute" unicode="&#x154;" horiz-adv-x="754" 
d="M178 287v176c0 156 0 184 -2 216c-2 34 -10 50 -43 57c-8 2 -25 3 -34 3c-4 0 -8 2 -8 6c0 6 5 8 16 8c45 0 108 -3 113 -3c11 0 87 3 118 3c63 0 130 -6 183 -44c25 -18 69 -67 69 -136c0 -74 -31 -148 -121 -231c82 -105 150 -194 208 -256c54 -57 97 -68 122 -72
c19 -3 33 -3 39 -3c5 0 9 -3 9 -6c0 -6 -6 -8 -24 -8h-71c-56 0 -81 5 -107 19c-43 23 -78 72 -135 147c-42 55 -89 122 -109 148c-4 4 -7 6 -13 6l-123 2c-5 0 -7 -3 -7 -8v-24c0 -96 0 -175 5 -217c3 -29 9 -51 39 -55c14 -2 36 -4 45 -4c6 0 8 -3 8 -6c0 -5 -5 -8 -16 -8
c-55 0 -118 3 -123 3c-1 0 -64 -3 -94 -3c-11 0 -16 2 -16 8c0 3 2 6 8 6c9 0 21 2 30 4c20 4 25 26 29 55c5 42 5 121 5 217zM258 703v-327c0 -5 2 -9 7 -12c15 -9 61 -16 105 -16c24 0 52 3 75 19c35 24 61 78 61 154c0 125 -66 200 -173 200c-30 0 -57 -3 -67 -6
c-5 -2 -8 -6 -8 -12zM484 933c7 -10 14 -24 25 -44c5 -9 0 -12 -4 -12c-3 0 -13 2 -30 0c-49 -5 -119 -28 -152 -42c-7 -3 -13 -5 -15 -5s-5 2 -5 6c0 3 2 5 7 8c36 25 129 81 136 85c17 10 23 13 28 13c3 0 5 -2 10 -9z" />
    <glyph glyph-name="Rcaron" unicode="&#x158;" horiz-adv-x="754" 
d="M178 287v176c0 156 0 184 -2 216c-2 34 -10 50 -43 57c-8 2 -25 3 -34 3c-4 0 -8 2 -8 6c0 6 5 8 16 8c45 0 108 -3 113 -3c11 0 87 3 118 3c63 0 130 -6 183 -44c25 -18 69 -67 69 -136c0 -74 -31 -148 -121 -231c82 -105 150 -194 208 -256c54 -57 97 -68 122 -72
c19 -3 33 -3 39 -3c5 0 9 -3 9 -6c0 -6 -6 -8 -24 -8h-71c-56 0 -81 5 -107 19c-43 23 -78 72 -135 147c-42 55 -89 122 -109 148c-4 4 -7 6 -13 6l-123 2c-5 0 -7 -3 -7 -8v-24c0 -96 0 -175 5 -217c3 -29 9 -51 39 -55c14 -2 36 -4 45 -4c6 0 8 -3 8 -6c0 -5 -5 -8 -16 -8
c-55 0 -118 3 -123 3c-1 0 -64 -3 -94 -3c-11 0 -16 2 -16 8c0 3 2 6 8 6c9 0 21 2 30 4c20 4 25 26 29 55c5 42 5 121 5 217zM258 703v-327c0 -5 2 -9 7 -12c15 -9 61 -16 105 -16c24 0 52 3 75 19c35 24 61 78 61 154c0 125 -66 200 -173 200c-30 0 -57 -3 -67 -6
c-5 -2 -8 -6 -8 -12zM230 920l21 22c4 4 6 6 9 6s5 -1 8 -5c20 -22 71 -63 84 -69c4 -2 7 -4 10 -4c4 0 8 1 16 5c23 12 61 43 85 63c8 7 15 10 18 10c4 0 7 -4 7 -8s-3 -7 -6 -11c-10 -10 -101 -94 -112 -104c-8 -7 -13 -10 -17 -10c-3 0 -7 3 -15 10c-8 6 -88 66 -101 76
c-9 6 -12 8 -12 10c0 3 3 6 5 9z" />
    <glyph glyph-name="Rcommaaccent" unicode="&#x156;" horiz-adv-x="754" 
d="M178 287v176c0 156 0 184 -2 216c-2 34 -10 50 -43 57c-8 2 -25 3 -34 3c-4 0 -8 2 -8 6c0 6 5 8 16 8c45 0 108 -3 113 -3c11 0 87 3 118 3c63 0 130 -6 183 -44c25 -18 69 -67 69 -136c0 -74 -31 -148 -121 -231c82 -105 150 -194 208 -256c54 -57 97 -68 122 -72
c19 -3 33 -3 39 -3c5 0 9 -3 9 -6c0 -6 -6 -8 -24 -8h-71c-56 0 -81 5 -107 19c-43 23 -78 72 -135 147c-42 55 -89 122 -109 148c-4 4 -7 6 -13 6l-123 2c-5 0 -7 -3 -7 -8v-24c0 -96 0 -175 5 -217c3 -29 9 -51 39 -55c14 -2 36 -4 45 -4c6 0 8 -3 8 -6c0 -5 -5 -8 -16 -8
c-55 0 -118 3 -123 3c-1 0 -64 -3 -94 -3c-11 0 -16 2 -16 8c0 3 2 6 8 6c9 0 21 2 30 4c20 4 25 26 29 55c5 42 5 121 5 217zM258 703v-327c0 -5 2 -9 7 -12c15 -9 61 -16 105 -16c24 0 52 3 75 19c35 24 61 78 61 154c0 125 -66 200 -173 200c-30 0 -57 -3 -67 -6
c-5 -2 -8 -6 -8 -12zM428 -148c0 44 -32 56 -32 67c0 27 34 52 59 52c5 0 8 -3 17 -18c12 -19 16 -32 16 -41c0 -8 -4 -25 -9 -37c-8 -22 -34 -73 -61 -102c-4 -5 -9 -9 -13 -9c-3 0 -6 3 -6 7s4 9 6 13c16 28 23 50 23 68z" />
    <glyph glyph-name="Sacute" unicode="&#x15a;" horiz-adv-x="570" 
d="M248 -17c-47 0 -93 7 -134 27c-14 7 -15 11 -15 38c0 50 4 90 5 106c1 11 3 16 8 16c6 0 7 -3 7 -11c0 -9 0 -23 3 -37c15 -74 81 -102 148 -102c96 0 143 69 143 133c0 69 -29 109 -115 180l-45 37c-106 87 -130 149 -130 217c0 107 80 180 207 180c39 0 68 -4 93 -10
c19 -4 27 -5 35 -5s10 -2 10 -7s-4 -38 -4 -106c0 -16 -2 -23 -7 -23c-6 0 -7 5 -8 13c-1 12 -7 39 -13 50s-33 53 -125 53c-69 0 -123 -43 -123 -116c0 -57 26 -93 122 -168l28 -22c118 -93 146 -155 146 -235c0 -41 -16 -117 -85 -166c-43 -30 -97 -42 -151 -42zM447 933
c7 -10 14 -24 25 -44c5 -9 0 -12 -4 -12c-3 0 -13 2 -30 0c-49 -5 -119 -28 -152 -42c-7 -3 -13 -5 -15 -5s-5 2 -5 6c0 3 2 5 7 8c36 25 129 81 136 85c17 10 23 13 28 13c3 0 5 -2 10 -9z" />
    <glyph glyph-name="Scedilla" unicode="&#x15e;" horiz-adv-x="570" 
d="M310 448l28 -22c118 -93 146 -155 146 -235c0 -41 -16 -117 -85 -166c-19 -13 -39 -22 -61 -29c-12 -7 -62 -55 -71 -64c62 -6 100 -30 100 -71c0 -39 -37 -68 -71 -82c-27 -12 -59 -18 -78 -18c-7 0 -13 3 -13 8c0 9 9 10 20 11c35 4 74 25 74 61c0 29 -13 56 -72 73
c-11 3 -15 5 -15 9c0 3 4 7 13 14l59 49c-6 -1 -12 -2 -18 -2c-6 -1 -12 -1 -18 -1c-47 0 -93 7 -134 27c-14 7 -15 11 -15 38c0 50 4 90 5 106c1 11 3 16 8 16c6 0 7 -3 7 -11c0 -9 0 -23 3 -37c15 -74 81 -102 148 -102c96 0 143 69 143 133c0 69 -29 109 -115 180l-45 37
c-106 87 -130 149 -130 217c0 107 80 180 207 180c39 0 68 -4 93 -10c19 -4 27 -5 35 -5s10 -2 10 -7s-4 -38 -4 -106c0 -16 -2 -23 -7 -23c-6 0 -7 5 -8 13c-1 12 -7 39 -13 50s-33 53 -125 53c-69 0 -123 -43 -123 -116c0 -57 26 -93 122 -168z" />
    <glyph glyph-name="Scommaaccent" unicode="&#x218;" horiz-adv-x="570" 
d="M248 -17c-47 0 -93 7 -134 27c-14 7 -15 11 -15 38c0 50 4 90 5 106c1 11 3 16 8 16c6 0 7 -3 7 -11c0 -9 0 -23 3 -37c15 -74 81 -102 148 -102c96 0 143 69 143 133c0 69 -29 109 -115 180l-45 37c-106 87 -130 149 -130 217c0 107 80 180 207 180c39 0 68 -4 93 -10
c19 -4 27 -5 35 -5s10 -2 10 -7s-4 -38 -4 -106c0 -16 -2 -23 -7 -23c-6 0 -7 5 -8 13c-1 12 -7 39 -13 50s-33 53 -125 53c-69 0 -123 -43 -123 -116c0 -57 26 -93 122 -168l28 -22c118 -93 146 -155 146 -235c0 -41 -16 -117 -85 -166c-43 -30 -97 -42 -151 -42zM271 -168
c0 44 -32 56 -32 67c0 27 34 52 59 52c5 0 8 -3 17 -18c12 -19 16 -32 16 -41c0 -8 -4 -25 -9 -37c-8 -22 -34 -73 -61 -102c-4 -5 -9 -9 -13 -9c-3 0 -6 3 -6 7s4 9 6 13c16 28 23 50 23 68z" />
    <glyph glyph-name="Tcaron" unicode="&#x164;" horiz-adv-x="691" 
d="M391 710v-423c0 -96 0 -175 5 -217c3 -29 9 -51 39 -55c14 -2 36 -4 45 -4c6 0 8 -3 8 -6c0 -5 -5 -8 -16 -8c-55 0 -118 3 -123 3s-68 -3 -98 -3c-11 0 -16 2 -16 8c0 3 2 6 8 6c9 0 21 2 30 4c20 4 25 26 29 55c5 42 5 121 5 217v423l-148 -2c-62 -1 -86 -8 -102 -32
c-11 -17 -14 -24 -17 -31c-3 -8 -6 -10 -10 -10c-3 0 -5 3 -5 9c0 10 20 96 22 104c2 6 6 19 10 19c7 0 17 -10 44 -12c29 -3 67 -5 79 -5h375c32 0 55 2 71 5c15 2 24 5 28 5c5 0 5 -6 5 -12c0 -30 -3 -99 -3 -110c0 -9 -3 -13 -7 -13c-5 0 -7 3 -8 17l-1 11
c-3 30 -27 53 -123 55zM224 920l21 22c4 4 6 6 9 6s5 -1 8 -5c20 -22 71 -63 84 -69c4 -2 7 -4 10 -4c4 0 8 1 16 5c23 12 61 43 85 63c8 7 15 10 18 10c4 0 7 -4 7 -8s-3 -7 -6 -11c-10 -10 -101 -94 -112 -104c-8 -7 -13 -10 -17 -10c-3 0 -7 3 -15 10
c-8 6 -88 66 -101 76c-9 6 -12 8 -12 10c0 3 3 6 5 9z" />
    <glyph glyph-name="Tcommaaccent" unicode="&#x162;" horiz-adv-x="691" 
d="M391 710v-423c0 -96 0 -175 5 -217c3 -29 9 -51 39 -55c14 -2 36 -4 45 -4c6 0 8 -3 8 -6c0 -5 -5 -8 -16 -8c-55 0 -118 3 -123 3s-68 -3 -98 -3c-11 0 -16 2 -16 8c0 3 2 6 8 6c9 0 21 2 30 4c20 4 25 26 29 55c5 42 5 121 5 217v423l-148 -2c-62 -1 -86 -8 -102 -32
c-11 -17 -14 -24 -17 -31c-3 -8 -6 -10 -10 -10c-3 0 -5 3 -5 9c0 10 20 96 22 104c2 6 6 19 10 19c7 0 17 -10 44 -12c29 -3 67 -5 79 -5h375c32 0 55 2 71 5c15 2 24 5 28 5c5 0 5 -6 5 -12c0 -30 -3 -99 -3 -110c0 -9 -3 -13 -7 -13c-5 0 -7 3 -8 17l-1 11
c-3 30 -27 53 -123 55zM336 -168c0 44 -32 56 -32 67c0 27 34 52 59 52c5 0 8 -3 17 -18c12 -19 16 -32 16 -41c0 -8 -4 -25 -9 -37c-8 -22 -34 -73 -61 -102c-4 -5 -9 -9 -13 -9c-3 0 -6 3 -6 7s4 9 6 13c16 28 23 50 23 68z" />
    </font>
</defs>
</svg>
